BitTorrentTracker PerecTracker.org
BitTorrentTracker PerecTracker.org
    
Регистрация  ·  Вход
 
 · 
Забыли пароль?

  • Ночной беглец / Run All Night (Хауме Кольет-Серра / Jaume Collet-Serra ) [2015, США, Боевик, криминал, драма, WEB-DL, HD (720p)] DUB + Original + sub (rus, ukr)

    Ответить на тему
     
    Автор Сообщение

    rechyn

    Создавать темы 29-Июн-2015 06:20

           

    [Цитировать]

    Ночной беглец / Run All Night
    «Одна ночь, чтобы свести счёты»
    6.588 / 10 6.70 / 10
    -Год выпуска: 2015
    Страна: США
    Жанр: Боевик, криминал, драма
    Продолжительность: 01:54:18
    Перевод: Дублированный (iTunes)
    Оригинальная аудиодорожка: Есть
    Cубтитры: Русские форсированные, Русские, Украинские
    Режиссёр: Хауме Кольет-Серра
    Сценарий: Брэд Ингелсби
    Продюсер: Рой Ли, Майкл Тадросс, Бруклин Уивер
    Оператор: Мартин Руе
    Композитор: Джанки Экс-Эл
    Художник: Шэрон Сеймур, Дебора Дженсен, Катрин Мари Томас
    Монтаж: Дирк Уэстервелт
    В ролях: Лиам Нисон, Юэль Киннаман, Коммон, Эд Харрис, Бойд Холбрук, Брюс МакГилл, Дженезис Родригез, Винсент Д’Онофрио, Луис Смит, Бо Напп
    Бюджет: $50 000 000
    Сборы в США: $26 461 644
    Сборы в мире: + $40 500 000 = $66 961 644
    Сборы в России: $1 070 455
    Мировая премьера: 9 марта 2015
    Премьера (РФ): 16 апреля 2015, «Каро-Премьер»
    Релиз на DVD: 20 августа 2015, «CP Дистрибуция»
    Релиз на Blu-Ray: 20 августа 2015, «CP Дистрибуция»
    Описание: Фильм расскажет историю киллера, вступившего в конфликт с бывшим боссом и в итоге вынужденного пуститься в бега, чтобы защитить свою семью от преследования мафией и властями.-Качество исходника: WEB-DL 720p (HDClub)
    Качество: WEB-DL
    Тип: HD (720p)
    Контейнер: M4V
    Видео: H.264, 1280x530, 2.40:1, 3 929 Kbps, 23.976 fps
    Аудио 1: Русский/Дублированный (iTunes), AAC / 2.0 / 157 Kbps / 48.0 KHz
    Аудио 2: Английский/Оригинальная дорожка , AAC / 2.0 / 156 Kbps / 48.0 KHz
    Аудио 3: Русский/Дублированный (iTunes), AC-3 / 5.1 / 384 Kbps / 48.0 KHz
    Субтитры 1: Русские форсированные
    Субтитры 2: Русские полные
    Субтитры 3: Украинские полные
    -

    iTunes Meta Tags

    Sort Name: Run All Night
    XID: Apple:vendor_id:2015-662469
    contentID: 970909186
    Copyright: © 2015 Warner Bros. Entertainment Inc. All Rights Reserved.
    Screenwriters: Брэд Ингелсби
    Producers: Рой Ли, Майкл Тадросс, Бруклин Уивер
    Director: Хауме Кольет-Серра
    Cast: Лиам Нисон, Юэль Киннаман, Коммон, Эд Харрис, Бойд Холбрук, Брюс МакГилл, Дженезис Родригез, Винсент Д’Онофрио, Луис Смит, Бо Напп, Владимир Антоник, Василиса Эльдарова, Владимир Войтюк, Дмитрий Полонский, Алексей Рязанцев
    Studio: Warner Bros.
    Rating: 11
    Long Description: Фильм расскажет историю киллера, вступившего в конфликт с бывшим боссом и в итоге вынужденного пуститься в бега, чтобы защитить свою семью от преследования мафией и властями.
    Description: Фильм расскажет историю киллера, вступившего в конфликт с бывшим боссом и в итоге вынужденного пуститься в бега, чтобы защитить свою семью от преследования мафией и властями.
    Release Date: 2015-03-09T08:00:00Z
    Genre: Action & Adventure
    Artist: Jaume Collet-Serra
    Name: Run All Night

    MediaInfo

    General
    Complete name                            : /Users/imac/HandBrake/Run.All.Night.720p.WEB-DL.m4v
    Format                                   : MPEG-4
    Codec ID                                 : M4V
    File size                                : 3.70 GiB
    Duration                                 : 1h 54mn
    Overall bit rate mode                    : Variable
    Overall bit rate                         : 4 633 Kbps
    Movie name                               : Run All Night
    Performer                                : Jaume Collet-Serra
    Genre                                    : Action & Adventure
    Recorded date                            : UTC 2015-03-09 08:00:00
    Encoded date                             : UTC 2015-06-28 23:17:03
    Tagged date                              : UTC 2015-06-28 23:18:32
    Copyright                                : © 2015 Warner Bros. Entertainment Inc. All Rights Reserved.
    Cover                                    : Yes
    sonm                                     : Run All Night
    desc                                     : Фильм расскажет историю киллера, вступившего в конфликт с бывшим боссом и в итоге вынужденного пуститься в бега, чтобы защитить свою семью от преследования мафией и властями.
    ldes                                     : Фильм расскажет историю киллера, вступившего в конфликт с бывшим боссом и в итоге вынужденного пуститься в бега, чтобы защитить свою семью от преследования мафией и властями.
    hdvd                                     : 1
    stik                                     : 9
    rtng                                     : 0
    cnID                                     : 970909186
    xid                                      : Apple:vendor_id:2015-662469
    iTunEXTC                                 : mpaa|R|400|
    iTunMOVI                                 : <?xml version=\"1.0\" encoding=\"UTF-8\"?> / <!DOCTYPE plist PUBLIC \"-//Apple//DTD PLIST 1.0//EN\" \"http://anonym.to/?http://www.apple.com/DTDs/PropertyList-1.0.dtd\"> / <plist version=\"1.0\"> / <dict> /  <key>cast</key> /  <array> /   <dict> /    <key>name</key> /    <string>Лиам Нисон</string> /   </dict> /   <dict> /    <key>name</key> /    <string>Юэль Киннаман</string> /   </dict> /   <dict> /    <key>name</key> /    <string>Коммон</string> /   </dict> /   <dict> /    <key>name</key> /    <string>Эд Харрис</string> /   </dict> /   <dict> /    <key>name</key> /    <string>Бойд Холбрук</string> /   </dict> /   <dict> /    <key>name</key> /    <string>Брюс МакГилл</string> /   </dict> /   <dict> /    <key>name</key> /    <string>Дженезис Родригез</string> /   </dict> /   <dict> /    <key>name</key> /    <string>Винсент Д’Онофрио</string> /   </dict> /   <dict> /    <key>name</key> /    <string>Луис Смит</string> /   </dict> /   <dict> /    <key>name</key> /    <string>Бо Напп</string> /   </dict> /   <dict> /    <key>name</key> /    <string>Владимир Антоник</string> /   </dict> /   <dict> /    <key>name</key> /    <string>Василиса Эльдарова</string> /   </dict> /   <dict> /    <key>name</key> /    <string>Владимир Войтюк</string> /   </dict> /   <dict> /    <key>name</key> /    <string>Дмитрий Полонский</string> /   </dict> /   <dict> /    <key>name</key> /    <string>Алексей Рязанцев</string> /   </dict> /  </array> /  <key>directors</key> /  <array> /   <dict> /    <key>name</key> /    <string>Хауме Кольет-Серра</string> /   </dict> /  </array> /  <key>producers</key> /  <array> /   <dict> /    <key>name</key> /    <string>Рой Ли</string> /   </dict> /   <dict> /    <key>name</key> /    <string>Майкл Тадросс</string> /   </dict> /   <dict> /    <key>name</key> /    <string>Бруклин Уивер</string> /   </dict> /  </array> /  <key>screenwriters</key> /  <array> /   <dict> /    <key>name</key> /    <string>Брэд Ингелсби</string> /   </dict> /  </array> /  <key>studio</key> /  <string>Warner Bros.</string> / </dict> / </plist>
    Video #1
    ID                                       : 1
    Format                                   : AVC
    Format/Info                              : Advanced Video Codec
    Format profile                           : Main@L3.1
    Format settings, CABAC                   : No
    Format settings, ReFrames                : 2 frames
    Codec ID                                 : avc1
    Codec ID/Info                            : Advanced Video Coding
    Duration                                 : 1h 54mn
    Bit rate mode                            : Variable
    Bit rate                                 : 3 929 Kbps
    Width                                    : 1 280 pixels
    Height                                   : 530 pixels
    Display aspect ratio                     : 2.40:1
    Frame rate mode                          : Constant
    Frame rate                               : 23.976 fps
    Color space                              : YUV
    Chroma subsampling                       : 4:2:0
    Bit depth                                : 8 bits
    Scan type                                : Progressive
    Bits/(Pixel*Frame)                       : 0.242
    Stream size                              : 3.14 GiB (85%)
    Language                                 : English
    Encoded date                             : UTC 2015-06-28 23:17:03
    Tagged date                              : UTC 2015-06-28 23:17:10
    Color primaries                          : BT.709-5, BT.1361, IEC 61966-2-4, SMPTE RP177
    Transfer characteristics                 : BT.709-5, BT.1361
    Matrix coefficients                      : BT.709-5, BT.1361, IEC 61966-2-4 709, SMPTE RP177
    Video #2
    ID                                       : 9
    Format                                   : JPEG
    Codec ID                                 : jpeg
    Duration                                 : 1h 54mn
    Bit rate mode                            : Variable
    Bit rate                                 : 572 bps
    Width                                    : 640 pixels
    Height                                   : 265 pixels
    Display aspect ratio                     : 2.40:1
    Frame rate mode                          : Variable
    Frame rate                               : 0.002 fps
    Minimum frame rate                       : 0.001 fps
    Maximum frame rate                       : 0.003 fps
    Color space                              : YUV
    Chroma subsampling                       : 4:2:0
    Bit depth                                : 8 bits
    Compression mode                         : Lossy
    Bits/(Pixel*Frame)                       : 1.686
    Stream size                              : 419 KiB (0%)
    Language                                 : English
    Encoded date                             : UTC 2015-06-28 23:17:15
    Tagged date                              : UTC 2015-06-28 23:17:16
    Audio #1
    ID                                       : 2
    Format                                   : AAC
    Format/Info                              : Advanced Audio Codec
    Format profile                           : LC
    Codec ID                                 : 40
    Duration                                 : 1h 54mn
    Bit rate mode                            : Variable
    Bit rate                                 : 157 Kbps
    Maximum bit rate                         : 240 Kbps
    Channel(s)                               : 2 channels
    Channel positions                        : Front: L R
    Sampling rate                            : 48.0 KHz
    Compression mode                         : Lossy
    Stream size                              : 128 MiB (3%)
    Language                                 : Russian
    Encoded date                             : UTC 2015-06-28 23:17:03
    Tagged date                              : UTC 2015-06-28 23:17:13
    Audio #2
    ID                                       : 3
    Format                                   : AAC
    Format/Info                              : Advanced Audio Codec
    Format profile                           : LC
    Codec ID                                 : 40
    Duration                                 : 1h 54mn
    Bit rate mode                            : Variable
    Bit rate                                 : 156 Kbps
    Maximum bit rate                         : 257 Kbps
    Channel(s)                               : 2 channels
    Channel positions                        : Front: L R
    Sampling rate                            : 48.0 KHz
    Compression mode                         : Lossy
    Stream size                              : 127 MiB (3%)
    Language                                 : English
    Encoded date                             : UTC 2015-06-28 23:17:03
    Tagged date                              : UTC 2015-06-28 23:17:13
    Audio #3
    ID                                       : 4
    Format                                   : AC-3
    Format/Info                              : Audio Coding 3
    Mode extension                           : CM (complete main)
    Format settings, Endianness              : Big
    Codec ID                                 : ac-3
    Duration                                 : 1h 54mn
    Bit rate mode                            : Constant
    Bit rate                                 : 384 Kbps
    Channel(s)                               : 6 channels
    Channel positions                        : Front: L C R, Side: L R, LFE
    Sampling rate                            : 48.0 KHz
    Bit depth                                : 16 bits
    Compression mode                         : Lossy
    Stream size                              : 314 MiB (8%)
    Language                                 : Russian
    Encoded date                             : UTC 2015-06-28 23:17:03
    Tagged date                              : UTC 2015-06-28 23:17:11
    Text #1
    ID                                       : 5
    Format                                   : Timed text
    Muxing mode                              : sbtl
    Codec ID                                 : tx3g
    Duration                                 : 1h 54mn
    Bit rate mode                            : Variable
    Bit rate                                 : 1 bps
    Stream size                              : 1.01 KiB (0%)
    Language                                 : Russian
    Encoded date                             : UTC 2015-06-28 23:17:03
    Tagged date                              : UTC 2015-06-28 23:17:10
    Text #2
    ID                                       : 6
    Format                                   : Timed text
    Muxing mode                              : sbtl
    Codec ID                                 : tx3g
    Duration                                 : 1h 54mn
    Bit rate mode                            : Variable
    Bit rate                                 : 81 bps
    Stream size                              : 67.7 KiB (0%)
    Language                                 : Russian
    Encoded date                             : UTC 2015-06-28 23:17:03
    Tagged date                              : UTC 2015-06-28 23:17:10
    Text #3
    ID                                       : 7
    Format                                   : Timed text
    Muxing mode                              : sbtl
    Codec ID                                 : tx3g
    Duration                                 : 1h 54mn
    Bit rate mode                            : Variable
    Bit rate                                 : 77 bps
    Stream size                              : 64.3 KiB (0%)
    Language                                 : Ukrainian
    Encoded date                             : UTC 2015-06-28 23:17:03
    Tagged date                              : UTC 2015-06-28 23:17:10
    Text #4
    ID                                       : 8
    Format                                   : Apple text
    Codec ID                                 : text
    Duration                                 : 1h 54mn
    Bit rate mode                            : Variable
    Bit rate                                 : 0 bps
    Stream size                              : 183 Bytes (0%)
    Language                                 : English
    Encoded date                             : UTC 2015-06-28 23:17:13
    Tagged date                              : UTC 2015-06-28 23:17:13
    Menu
    00:00:00.000                             : 1
    00:09:02.000                             : 2
    00:20:31.000                             : 3
    00:29:23.000                             : 4
    00:41:16.000                             : 5
    00:50:29.000                             : 6
    01:01:35.000                             : 7
    01:10:56.000                             : 8
    01:19:51.000                             : 9
    01:34:13.000                             : 10
    01:39:08.000                             : 11
    01:48:38.000                             : 12

    Скриншоты

    -

    Релиз подготовлен для просмотра на Apple TV, iPad, iPhone, iPod Touch.
    Для просмотра данного релиза на компьютере с ОС Windows рекомендуется использовать VLC media player
    Скачать .torrent

    Скачать торрент-файл бесплатно и на максимальной скорости!

    Как скачивать? · Что такое торрент? · Рейтинг и ограничения

    !ВНИМАНИЕ!
    Сайт не распространяет и не хранит электронные версии произведений, а занимается лишь лишь предоставлением доступа к создаваемому пользователями каталогу ссылок на торрент-файлы, которые содержат только списки хеш-сумм, убедительная просьба с жалобами обращаться напрямую к пользователю. Файлы для обмена на трекере предоставлены пользователями сайта, и администрация не несёт ответственности за их содержание. Просьба не заливать файлы, защищенные авторскими правами, а также файлы нелегального содержания!


    _________________
    [Профиль] [ЛС]
    Показать сообщения:    
    Ответить на тему

    Текущее время: Сегодня, в 19:54

    Часовой пояс: GMT + 2



    Вы не можете начинать темы
    Вы не можете отвечать на сообщения
    Вы не можете редактировать свои сообщения
    Вы не можете удалять свои сообщения
    Вы не можете голосовать в опросах
    Вы не можете прикреплять файлы к сообщениям
    Вы не можете скачивать файлы