BitTorrentTracker PerecTracker.org
BitTorrentTracker PerecTracker.org
    
Регистрация  ·  Вход
 
 · 
Забыли пароль?

  • Драйвер на ночь / Stretch (Джо Карнахан / Joe Carnahan) [2014, США, триллер, комедия, BDRip-AVC] Dub + Subs (Rus, Eng) + Original Eng

    Ответить на тему
     
    Автор Сообщение

    Light

    Создавать темы 29-Июн-2015 06:20

           

    [Цитировать]

    Драйвер на ночь / Stretch
    Страна: США
    Жанр: триллер, комедия
    Год выпуска: 2014
    Продолжительность: 01:34:28
    Перевод: Профессиональный (дублированный) IPTV
    Cубтитры: русские, английские
    Оригинальная аудиодорожка: английский
    Режиссер: Джо Карнахан / Joe Carnahan
    В ролях: Патрик Уилсон, Эд Хелмс, Джеймс Бэдж Дэйл, Бруклин Декер, Крис Пайн, Джессика Альба, Рэй Лиотта, Дэвид Хассельхофф, Рэнди Кутюр, Минди Робинсон
    Описание: Невезучему шоферу лимузина до выплаты внушительного долга остается отработать всего одну смену. Его последним клиентом становится загадочный молодой миллиардер, пообещавший небывалые чаевые за несколько дополнительных услуг. В погоне за так нужными ему сейчас деньгами водитель ввязывается в безумные переделки на улицах Лос-Анджелеса, и чем больше ночь опускается на мегаполис, тем более призрачной видится ему надежда остаться в живых… Сэмпл: http://sendfile.su/1132581
    Качество видео: BDRip-AVC [Blu-Ray Disc -BLUEBIRD]
    Формат видео: MKV
    Видео: AVC, 1152 x 480 (2,40:1), 2399 kbps, 23,976 fps, 0.181 bpp
    Аудио: AC3, 6ch, 48 kHz, ~448 kbps, 16 bit
    Аудио 2: AC3, 6ch, 48 kHz, ~448 kbps, 16 bit
    Формат субтитров: softsub (SRT)

    MediaInfo

    Уникальный идентификатор : 208964225047215536166464914213376269329 (0x9D350BBBAC4079C1A8B4D417442A9C11)
    Полное имя : F:\Films\Driver\Driver (1).mkv
    Формат : Matroska
    Версия формата : Version 4 / Version 2
    Размер файла : 2,18 Гбайт
    Продолжительность : 1 ч. 34 м.
    Общий поток : 3295 Кбит/сек
    Дата кодирования : UTC 2015-06-28 01:52:44
    Программа кодирования : mkvmerge v7.7.0 ('Six Voices') 64bit built on Feb 28 2015 23:39:33
    Библиотека кодирования : libebml v1.3.1 + libmatroska v1.4.2
    _STATISTICS_WRITING_APP : mkvmerge v7.7.0 ('Six Voices') 64bit built on Feb 28 2015 23:39:33
    _STATISTICS_WRITING_DATE_UTC : 2015-06-28 01:52:44
    _STATISTICS_TAGS : BPS DURATION NUMBER_OF_FRAMES NUMBER_OF_BYTES
    DURATION : 01:33:36.650000000
    NUMBER_OF_FRAMES : 1443
    NUMBER_OF_BYTES : 87763
    Видео
    Идентификатор : 1
    Формат : AVC
    Формат/Информация : Advanced Video Codec
    Профиль формата : High@L4.1
    Параметр CABAC формата : Да
    Параметр ReFrames формата : 8 кадров
    Идентификатор кодека : V_MPEG4/ISO/AVC
    Продолжительность : 1 ч. 34 м.
    Битрейт : 2399 Кбит/сек
    Ширина : 1152 пикселя
    Высота : 480 пикселей
    Соотношение сторон : 2,40:1
    Режим частоты кадров : Постоянный
    Частота кадров : 23,976 кадра/сек
    Цветовое пространство : YUV
    Субдискретизация насыщенности : 4:2:0
    Битовая глубина : 8 бит
    Тип развёртки : Прогрессивная
    Бит/(Пиксели*Кадры) : 0.181
    Размер потока : 1,54 Гбайт (71%)
    Библиотека кодирования : x264 core 142 r2431 ac76440
    Настройки программы : cabac=1 / ref=8 / deblock=1:-2:-1 / analyse=0x3:0x133 / me=umh / subme=9 / psy=1 / psy_rd=1.00:0.05 / mixed_ref=0 / me_range=36 / chroma_me=1 / trellis=2 / 8x8dct=1 / cqm=0 / deadzone=21,11 / fast_pskip=0 / chroma_qp_offset=-3 / threads=4 / lookahead_threads=1 / sliced_threads=0 / nr=0 / decimate=0 / interlaced=0 / bluray_compat=0 / constrained_intra=0 / bframes=12 / b_pyramid=2 / b_adapt=2 / b_bias=0 / direct=1 / weightb=1 / open_gop=0 / weightp=2 / keyint=240 / keyint_min=23 / scenecut=40 / intra_refresh=0 / rc=2pass / mbtree=0 / bitrate=2399 / ratetol=1.0 / qcomp=0.65 / qpmin=10 / qpmax=69 / qpstep=4 / cplxblur=20.0 / qblur=0.5 / ip_ratio=1.40 / pb_ratio=1.30 / aq=1:1.00
    Default : Да
    Forced : Нет
    Аудио #1
    Идентификатор : 2
    Формат : AC-3
    Формат/Информация : Audio Coding 3
    Расширение режима : CM (complete main)
    Параметр Endianness формата : Big
    Идентификатор кодека : A_AC3
    Продолжительность : 1 ч. 34 м.
    Вид битрейта : Постоянный
    Битрейт : 448 Кбит/сек
    Каналы : 6 каналов
    Расположение каналов : Front: L C R, Side: L R, LFE
    Частота : 48,0 КГц
    Битовая глубина : 16 бит
    Метод сжатия : С потерями
    Размер потока : 303 Мбайт (14%)
    Заголовок : Русский дублированный, IPTV
    Язык : Russian
    Default : Да
    Forced : Нет
    Аудио #2
    Идентификатор : 3
    Формат : AC-3
    Формат/Информация : Audio Coding 3
    Расширение режима : CM (complete main)
    Параметр Endianness формата : Big
    Идентификатор кодека : A_AC3
    Продолжительность : 1 ч. 34 м.
    Вид битрейта : Постоянный
    Битрейт : 448 Кбит/сек
    Каналы : 6 каналов
    Расположение каналов : Front: L C R, Side: L R, LFE
    Частота : 48,0 КГц
    Битовая глубина : 16 бит
    Метод сжатия : С потерями
    Размер потока : 303 Мбайт (14%)
    Заголовок : Английский
    Язык : English
    Default : Нет
    Forced : Нет
    Текст #1
    Идентификатор : 4
    Формат : UTF-8
    Идентификатор кодека : S_TEXT/UTF8
    Идентификатор кодека/Информация : UTF-8 Plain Text
    Заголовок : Русские
    Язык : Russian
    Default : Нет
    Forced : Нет
    Текст #2
    Идентификатор : 5
    Формат : UTF-8
    Идентификатор кодека : S_TEXT/UTF8
    Идентификатор кодека/Информация : UTF-8 Plain Text
    Заголовок : Английские
    Язык : English
    Default : Нет
    Forced : Нет
    Меню
    00:00:00.000 : en:00:00:00.000
    00:10:32.089 : en:00:10:32.089
    00:20:39.070 : en:00:20:39.070
    00:30:26.825 : en:00:30:26.825
    00:40:00.271 : en:00:40:00.271
    00:50:01.539 : en:00:50:01.539
    01:00:34.172 : en:01:00:34.172
    01:09:56.567 : en:01:09:56.567
    01:19:25.594 : en:01:19:25.594
    01:28:18.751 : en:01:28:18.751

    Скриншот c названием фильма

    Скриншоты

    Скачать .torrent

    Скачать торрент-файл бесплатно и на максимальной скорости!

    Как скачивать? · Что такое торрент? · Рейтинг и ограничения

    !ВНИМАНИЕ!
    Сайт не распространяет и не хранит электронные версии произведений, а занимается лишь лишь предоставлением доступа к создаваемому пользователями каталогу ссылок на торрент-файлы, которые содержат только списки хеш-сумм, убедительная просьба с жалобами обращаться напрямую к пользователю. Файлы для обмена на трекере предоставлены пользователями сайта, и администрация не несёт ответственности за их содержание. Просьба не заливать файлы, защищенные авторскими правами, а также файлы нелегального содержания!


    _________________
    [Профиль] [ЛС]
    Показать сообщения:    
    Ответить на тему

    Текущее время: Сегодня, в 14:10

    Часовой пояс: GMT + 2



    Вы не можете начинать темы
    Вы не можете отвечать на сообщения
    Вы не можете редактировать свои сообщения
    Вы не можете удалять свои сообщения
    Вы не можете голосовать в опросах
    Вы не можете прикреплять файлы к сообщениям
    Вы не можете скачивать файлы