BitTorrentTracker PerecTracker.org
BitTorrentTracker PerecTracker.org
    
Регистрация  ·  Вход
 
 · 
Забыли пароль?

  • Дорога (Александр Столпер) [1955 г., детектив, приключения, SATRip]

    Ответить на тему
     
    Автор Сообщение

    Light

    Создавать темы 28-Июн-2015 21:56

           

    [Цитировать]

    ДорогаГод выпуска: 1955.
    Жанр: детектив, приключения.
    Продолжительность: 01:36:41.
    Режиссер: Александр Столпер.
    В ролях:
    Андрей Попов, Виталий Доронин, Николай Гриценко, Тамара Логинова, Лев Свердлин, Виктор Авдюшко, Евгений Матвеев, Евгений Леонов, Григорий Михайлов, Владимир Кенигсон, Тахир Сабиров, Павел Винников, Николай Сергеев, Борис Битюков, Николай Борисенко.
    Описание:
    На одной из автостанций горной дороги Дальнего Востока из-за снегопадов застряли десятки машин с пассажирами и срочным грузом. Под вечер на станцию прибывают еще два пассажира - капитан госбезопасности и "иностранный турист". Утром, несмотря на пургу, автоколонна направляется на штурм перевала. Никто не подозревает, что капитан сопровождает диверсанта, назначившего встречу на перевале.
    Доп. информация:
    Страна: СССР .
    Киностудия: Мосфильм.
    Премьера: 3 октября 1955 года.
    Автор сценария: Сергей Ермолинский.
    Операторы: Леонид Крайненков, Александр Харитонов, Григорий Айзенберг.
    Композитор: Николай Крюков.
    Художник: Иосиф Шпинель.

    Еще постеры

    Релиз
    Рип с этой раздачи.
    Большое спасибо Cheef mate за предоставленый материал для рипа!!!

    Качество: SATRip
    Формат: AVI
    Видео: 688x528 (1.30:1), 25 fps, XviD build 73 ~1958 kbps avg, 0.22 bit/pixel
    Аудио: 48 kHz, AC3 Dolby Digital, 2/0 (L,R) ch, ~192 kbps

    Отчет MI

    General
    Complete name : Doroga.1955.XviD.SATRip.fenixclub_1.45.avi
    Format : AVI
    Format/Info : Audio Video Interleave
    File size : 1.46 GiB
    Duration : 1h 36mn
    Overall bit rate : 2 160 Kbps
    Writing application : VirtualDubMod 1.5.10.3 | www.virtualdub-fr.org || (build 2550/release)
    Writing library : VirtualDubMod build 2550/release
    Video
    ID : 0
    Format : MPEG-4 Visual
    Format profile : Advanced Simple@L5
    Format settings, BVOP : 2
    Format settings, QPel : No
    Format settings, GMC : No warppoints
    Format settings, Matrix : Custom
    Codec ID : XVID
    Codec ID/Hint : XviD
    Duration : 1h 36mn
    Bit rate : 1 958 Kbps
    Width : 688 pixels
    Height : 528 pixels
    Display aspect ratio : 4:3
    Frame rate : 25.000 fps
    Color space : YUV
    Chroma subsampling : 4:2:0
    Bit depth : 8 bits
    Scan type : Progressive
    Compression mode : Lossy
    Bits/(Pixel*Frame) : 0.216
    Stream size : 1.32 GiB (91%)
    Writing library : XviD 73
    Audio
    ID : 1
    Format : AC-3
    Format/Info : Audio Coding 3
    Mode extension : CM (complete main)
    Format settings, Endianness : Big
    Codec ID : 2000
    Duration : 1h 36mn
    Bit rate mode : Constant
    Bit rate : 192 Kbps
    Channel(s) : 2 channels
    Channel positions : Front: L R
    Sampling rate : 48.0 KHz
    Compression mode : Lossy
    Stream size : 133 MiB (9%)
    Alignment : Split accross interleaves
    Interleave, duration : 40 ms (1.00 video frame)
    Interleave, preload duratio : 500 ms.
    Скриншоты

    Альтернативный хост

    Скачать .torrent

    Скачать торрент-файл бесплатно и на максимальной скорости!

    Как скачивать? · Что такое торрент? · Рейтинг и ограничения

    !ВНИМАНИЕ!
    Сайт не распространяет и не хранит электронные версии произведений, а занимается лишь лишь предоставлением доступа к создаваемому пользователями каталогу ссылок на торрент-файлы, которые содержат только списки хеш-сумм, убедительная просьба с жалобами обращаться напрямую к пользователю. Файлы для обмена на трекере предоставлены пользователями сайта, и администрация не несёт ответственности за их содержание. Просьба не заливать файлы, защищенные авторскими правами, а также файлы нелегального содержания!


    _________________
    [Профиль] [ЛС]
    Показать сообщения:    
    Ответить на тему

    Текущее время: Сегодня, в 16:27

    Часовой пояс: GMT + 2



    Вы не можете начинать темы
    Вы не можете отвечать на сообщения
    Вы не можете редактировать свои сообщения
    Вы не можете удалять свои сообщения
    Вы не можете голосовать в опросах
    Вы не можете прикреплять файлы к сообщениям
    Вы не можете скачивать файлы