BitTorrentTracker PerecTracker.org
BitTorrentTracker PerecTracker.org
    
Регистрация  ·  Вход
 
 · 
Забыли пароль?

  • Неизвестная девушка / Проси меня о чём угодно / Ask Me Anything (Эллисон Бернетт /Allison Burnett) [2014, США, Драма, WEB-DLRip] VO

    Ответить на тему
     
    Автор Сообщение

    Light

    Создавать темы 28-Июн-2015 21:56

           

    [Цитировать]

    Неизвестная девушка / Проси меня о чём угодно / Ask Me Anything
    Страна: США
    Жанр: Драма
    Год выпуска: 2014
    Продолжительность: 01:38:41
    Перевод: Одноголосый закадровый
    Cубтитры: нет
    Режиссер: Эллисон Бернетт /Allison Burnett
    В ролях: Бритт Робертсон , Джастин Лонг, Кристиан Слэйтер, Роберт Патрик, Мартин Шин, Молли Хэйгэн, Зулейха Робинсон, Кимберли Уильямс-Пэйсли, Макс Карвер, Джиа Мантенья, Шэрон Оми, Макс Хоффман, Беатрис Розен, Кэтрин де Прюм, Лоррэйн Туссэйнт, Лили Леди
    Кэти Кэмпенфелт (Бритт Робертсон) берет годичные каникулы перед тем как поступить в колледж. Для мамы и учителей она мотивирует свой поступок тем, что пока не готова сделать выбор дальнейшего жизненного пути. Взрослые дают согласие, но при условии, что она найдет себе работу, чтобы не бездельничать и станет вести блог, чтобы развивать свою речь и погрузиться в самоанализ. В блоге, который Кэти решает сделать анонимным, девушка изливает его читателям все свои самые сокровенные тайны и чувства, включая подробности интимных отношений сразу с несколькими мужчинами разного возраста...
    Сэмпл | Кинопоиск
    Качество видео: WEB-DLRip
    Формат видео: AVI
    Видео: 1562 Кбит/сек 720 x 400 (1.778) at 23.976 fps
    Аудио: 128 Кбит/сек 2 канала, 48,0 КГц--Доп. инфо: 18+

    MediaInfo

    Формат : AVI
    Формат/Информация : Audio Video Interleave
    Размер файла : 1,17 Гбайт
    Продолжительность : 1 ч. 38 м.
    Общий поток : 1700 Кбит/сек
    Название фильма : RARBG.COM - Ask.Me.Anything.2014.WEB-DL.XviD.MP3-RARBG
    Программа кодирования : VirtualDubMod 1.5.10.2 (build 2540/release)
    Библиотека кодирования : VirtualDubMod build 2540/release
    Примечание : RARBG.COM - Ask.Me.Anything.2014.WEB-DL.XviD.MP3-RARBG
    Видео
    Идентификатор : 0
    Формат : MPEG-4 Visual
    Профиль формата : Simple@L5
    Параметр BVOP формата : Нет
    Параметр QPel формата : Нет
    Параметр GMC формата : Без точки перехода
    Параметр матрицы формата : Default (H.263)
    Идентификатор кодека : XVID
    Идентификатор кодека/Подсказка : XviD
    Продолжительность : 1 ч. 38 м.
    Битрейт : 1562 Кбит/сек
    Ширина : 720 пикселей
    Высота : 400 пикселей
    Соотношение сторон : 16:9
    Частота кадров : 23,976 кадра/сек
    Цветовое пространство : YUV
    Субдискретизация насыщенности : 4:2:0
    Битовая глубина : 8 бит
    Тип развёртки : Прогрессивная
    Метод сжатия : С потерями
    Бит/(Пиксели*Кадры) : 0.226
    Размер потока : 1,08 Гбайт (92%)
    Библиотека кодирования : Lavc56.13.100
    Аудио
    Идентификатор : 1
    Формат : MPEG Audio
    Версия формата : Version 1
    Профиль формата : Layer 3
    Режим : Joint stereo
    Идентификатор кодека : 55
    Идентификатор кодека/Подсказка : MP3
    Продолжительность : 1 ч. 38 м.
    Вид битрейта : Постоянный
    Битрейт : 128 Кбит/сек
    Каналы : 2 канала
    Частота : 48,0 КГц
    Метод сжатия : С потерями
    Размер потока : 90,4 Мбайт (8%)
    Выравнивание : Разделение по промежуткам
    Продолжительность промежутка : 42 мс. (1,00 видеокадр)
    Время предзагрузки промежутка : 500 мс.

    Скриншот c названием фильма

    Скриншоты

    Скачать .torrent

    Скачать торрент-файл бесплатно и на максимальной скорости!

    Как скачивать? · Что такое торрент? · Рейтинг и ограничения

    !ВНИМАНИЕ!
    Сайт не распространяет и не хранит электронные версии произведений, а занимается лишь лишь предоставлением доступа к создаваемому пользователями каталогу ссылок на торрент-файлы, которые содержат только списки хеш-сумм, убедительная просьба с жалобами обращаться напрямую к пользователю. Файлы для обмена на трекере предоставлены пользователями сайта, и администрация не несёт ответственности за их содержание. Просьба не заливать файлы, защищенные авторскими правами, а также файлы нелегального содержания!


    _________________
    [Профиль] [ЛС]
    Показать сообщения:    
    Ответить на тему

    Текущее время: Сегодня, в 22:21

    Часовой пояс: GMT + 2



    Вы не можете начинать темы
    Вы не можете отвечать на сообщения
    Вы не можете редактировать свои сообщения
    Вы не можете удалять свои сообщения
    Вы не можете голосовать в опросах
    Вы не можете прикреплять файлы к сообщениям
    Вы не можете скачивать файлы