BitTorrentTracker PerecTracker.org
BitTorrentTracker PerecTracker.org
    
Регистрация  ·  Вход
 
 · 
Забыли пароль?

  • Дед 005 (Аркадий Григорян, Мгер Мкртчян) [2013 г., Россия, комедия, WEB-DLRip-AVC]

    Ответить на тему
     
    Автор Сообщение

    rechyn

    Создавать темы 28-Июн-2015 17:44

           

    [Цитировать]

    Дед 005
    «Спасение влюбленного внука. Миссия выполнима»


    Страна: Россия
    Студия: СинеПро
    Жанр: комедия
    Год выпуска: 2013
    Продолжительность: 01:28:45
    Режиссер:
    Аркадий Григорян, Мгер Мкртчян
    В ролях:
    Сергей Шакуров, Андрис Булис, Вахтанг Кикабидзе, Анна Попова, Грант Тохатян, Олеся Судзиловская, Константин Юшкевич, Дмитрий Марьянов, Сергей Степанченко, Татьяна Лютаева
    Описание:
    Гений разведки Олег Степанович, полковник в отставке, тоскует без работы, коротая дни в парке и у телевизора… А в это время его внук Андрей, начинающий дипломат, попадает в затруднительную романтическую ситуацию. Дед летит к внуку в Ереван, где встречает своего старого товарища, кардиолога Ираклия, который тут же включается в «сердечное» дело. Операция по решению любовных проблем внука получает название «Дед 005», причём методы русского чекиста и грузинского врача иногда шокируют окружающих. Но только настоящая любовь способна взять верх над мастерством виртуозов контрразведки.

    Релиз:
    Автор рипа: Stalker oK
    Сэмпл: multi-up
    Качество видео: WEB-DLRip-AVC [WEB-DL 1080p-bluebird]
    Формат видео: MKV
    Видео кодек: AVC
    Аудио кодек: AC3
    Видео: 1959 Кбит/сек, 960*540 (16:9), в 25,000 кадр/сек, AVC
    Аудио: Russian, 384 Кбит/сек, 48,0 КГц, 16 бит, 6 канала(ов), AC-3

    MediaInfo

    Общее
    Уникальный идентификатор : 252776741667893145522062331580143659452 (0xBE2B079403E6495CA1ED925AAC4869BC)
    Полное имя : L:\рипы\Дед 005\Ded.005.2013.WEB-DLRip-AVC.1.45Gb...stalkerok.new-team.mkv
    Формат : Matroska
    Размер файла : 1,45 Гбайт
    Продолжительность : 1 ч. 28 м.
    Общий поток : 2344 Кбит/сек
    Название фильма : Дед 005 (2013) (New-Team) (Rip by Stalker oK)
    Дата кодирования : UTC 2015-06-27 16:41:28
    Программа кодирования : mkvmerge v7.9.0 ('Birds') 64bit
    Библиотека кодирования : libebml v1.3.1 + libmatroska v1.4.2
    Видео
    Идентификатор : 1
    Формат : AVC
    Формат/Информация : Advanced Video Codec
    Профиль формата : High@L4.1
    Параметр CABAC формата : Да
    Параметр ReFrames формата : 12 кадры
    Идентификатор кодека : V_MPEG4/ISO/AVC
    Продолжительность : 1 ч. 28 м.
    Битрейт : 1959 Кбит/сек
    Ширина : 960 пикс.
    Высота : 540 пикс.
    Соотношение сторон : 16:9
    Частота кадров : 25,000 кадр/сек
    Цветовое пространство : YUV
    Подвыборка цветности : 4:2:0
    Битовая глубина : 8 бит
    Тип развёртки : Прогрессивная
    Бит/(Пиксели*Кадры) : 0.151
    Размер потока : 1,19 Гбайт (82%)
    Библиотека кодирования : x264 core 146 r2538kMod 121396c
    Настройки программы : cabac=1 / ref=12 / deblock=1:-3:-2 / analyse=0x3:0x133 / me=umh / subme=11 / psy=1 / fade_compensate=0.00 / psy_rd=1.02:0.10 / mixed_ref=1 / me_range=32 / chroma_me=1 / trellis=2 / 8x8dct=1 / cqm=0 / deadzone=21,11 / fast_pskip=0 / chroma_qp_offset=-3 / threads=12 / lookahead_threads=3 / sliced_threads=0 / nr=0 / decimate=0 / interlaced=0 / bluray_compat=0 / constrained_intra=0 / fgo=0 / bframes=14 / b_pyramid=2 / b_adapt=2 / b_bias=0 / direct=3 / weightb=1 / open_gop=0 / weightp=2 / keyint=250 / keyint_min=25 / scenecut=40 / intra_refresh=0 / rc_lookahead=40 / rc=2pass / mbtree=0 / bitrate=1959 / ratetol=1.0 / qcomp=0.70 / qpmin=0 / qpmax=69 / qpstep=4 / cplxblur=20.0 / qblur=0.5 / vbv_maxrate=50000 / vbv_bufsize=62500 / nal_hrd=none / filler=0 / ip_ratio=1.40 / pb_ratio=1.30 / aq=2:0.90
    Аудио
    Идентификатор : 2
    Формат : AC-3
    Формат/Информация : Audio Coding 3
    Расширение режима : CM (complete main)
    Идентификатор кодека : A_AC3
    Продолжительность : 1 ч. 28 м.
    Вид битрейта : Постоянный
    Битрейт : 384 Кбит/сек
    Канал(ы) : 6 канала(ов)
    Расположение каналов : Front: L C R, Side: L R, LFE
    Частота : 48,0 КГц
    Битовая глубина : 16 бит
    Метод сжатия : С потерями
    Размер потока : 244 Мбайт (16%)
    Заголовок : DD 5.1 @ 384 kbps
    Язык : Russian
    Меню
    00:00:00.000 : en:1
    00:05:20.000 : en:2
    00:10:43.000 : en:3
    00:16:18.000 : en:4
    00:21:25.000 : en:5
    00:27:01.000 : en:6
    00:32:33.000 : en:7
    00:37:35.000 : en:8
    00:42:23.000 : en:9
    00:47:23.000 : en:10
    00:52:33.000 : en:11
    00:57:29.000 : en:12
    01:03:20.000 : en:13
    01:09:09.000 : en:14
    01:14:26.000 : en:15
    01:20:16.000 : en:16
    01:24:43.000 : en:17

    Скриншоты

    Скачать .torrent

    Скачать торрент-файл бесплатно и на максимальной скорости!

    Как скачивать? · Что такое торрент? · Рейтинг и ограничения

    !ВНИМАНИЕ!
    Сайт не распространяет и не хранит электронные версии произведений, а занимается лишь лишь предоставлением доступа к создаваемому пользователями каталогу ссылок на торрент-файлы, которые содержат только списки хеш-сумм, убедительная просьба с жалобами обращаться напрямую к пользователю. Файлы для обмена на трекере предоставлены пользователями сайта, и администрация не несёт ответственности за их содержание. Просьба не заливать файлы, защищенные авторскими правами, а также файлы нелегального содержания!


    _________________
    [Профиль] [ЛС]
    Показать сообщения:    
    Ответить на тему

    Текущее время: Сегодня, в 20:48

    Часовой пояс: GMT + 2



    Вы не можете начинать темы
    Вы не можете отвечать на сообщения
    Вы не можете редактировать свои сообщения
    Вы не можете удалять свои сообщения
    Вы не можете голосовать в опросах
    Вы не можете прикреплять файлы к сообщениям
    Вы не можете скачивать файлы