BitTorrentTracker PerecTracker.org
BitTorrentTracker PerecTracker.org
    
Регистрация  ·  Вход
 
 · 
Забыли пароль?

  • Единичка (Кирилл Белевич) [2015, военный, драма, DVDRip-AVC]

    Ответить на тему
     
    Автор Сообщение

    rechyn

    Создавать темы 28-Июн-2015 13:32

           

    [Цитировать]

    Единичка
    Жанр: военный, драма
    Год выпуска: 2015
    Продолжительность: 01:44:55
    Режиссёр: Кирилл Белевич
    В ролях: Андрей Мерзликин, Илья Коробко, Анна Прус, Арина Борисова, Александр Вершинин, Михаил Евланов, Микаэл Джанибекян, Сергей Габриэлян, Добрыня Белевич-Оболенский, Якуб Здруйковский
    Описание: Август 1944-го. Советские войска продолжают наступление в Восточной Польше. Подразделение старшего лейтенанта Егорова получает задание - удержать мост, через который планируется переправа частей Советской Армии. Прибыв на позицию, бойцы обнаруживают разрушенный монастырь, а в нем - группу глухих сирот с воспитательницей Евой. Утратив веру, она нашла смысл жизни в спасении немощных и беззащитных детей. Лейтенант Егоров оказывается перед сложным выбором - выполняя приказ командования, он будет вынужден поставить под угрозу жизнь маленьких поляков. Артиллеристы изо всех сил стараются не допустить смерти детей...
    Сэмпл: http://multi-up.com/1055925
    Качество видео: DVDRip-AVC
    Формат видео: MKV
    Видео: 720x428@1024x428 (2.40:1), 25 fps, MPEG-4 AVC~2085 kbps avg, 0.271 bit/pixel
    Аудио: 48 kHz, AC3 Dolby Digital, 6 ch, ~448 kbps

    MediaInfo

    General
    Unique ID : 212939182126834554038953270879725672448 (0xA032983F8377BA938258674751DDD800)
    Complete name : F:\Download\Edinichka..mkv
    Format : Matroska
    Format version : Version 4 / Version 2
    File size : 1.86 GiB
    Duration : 1h 44mn
    Overall bit rate : 2 532 Kbps
    Movie name : Edinichka 2015 from ExKinoRay
    Encoded date : UTC 2015-06-28 06:04:42
    Writing application : mkvmerge v6.6.0 ('The Edge Of The In Between') built on Dec 1 2013 17:55:00
    Writing library : libebml v1.3.0 + libmatroska v1.4.1
    Video
    ID : 1
    Format : AVC
    Format/Info : Advanced Video Codec
    Format profile : High@L4.1
    Format settings, CABAC : Yes
    Format settings, ReFrames : 12 frames
    Codec ID : V_MPEG4/ISO/AVC
    Duration : 1h 44mn
    Bit rate : 2 085 Kbps
    Width : 720 pixels
    Height : 428 pixels
    Display aspect ratio : 2.40:1
    Frame rate mode : Constant
    Frame rate : 25.000 fps
    Color space : YUV
    Chroma subsampling : 4:2:0
    Bit depth : 8 bits
    Scan type : Progressive
    Bits/(Pixel*Frame) : 0.271
    Stream size : 1.49 GiB (80%)
    Title : Enigma
    Writing library : x264 core 133 r2334 a3ac64b
    Encoding settings : cabac=1 / ref=12 / deblock=1:-2:-2 / analyse=0x3:0x113 / me=umh / subme=10 / psy=1 / psy_rd=1.05:0.15 / mixed_ref=1 / me_range=32 / chroma_me=1 / trellis=2 / 8x8dct=1 / cqm=0 / deadzone=21,11 / fast_pskip=0 / chroma_qp_offset=-3 / threads=12 / lookahead_threads=2 / sliced_threads=0 / nr=0 / decimate=0 / interlaced=0 / bluray_compat=0 / constrained_intra=0 / bframes=9 / b_pyramid=2 / b_adapt=2 / b_bias=0 / direct=3 / weightb=1 / open_gop=0 / weightp=2 / keyint=250 / keyint_min=25 / scenecut=40 / intra_refresh=0 / rc=2pass / mbtree=0 / bitrate=2085 / ratetol=1.0 / qcomp=0.65 / qpmin=0 / qpmax=51 / qpstep=4 / cplxblur=20.0 / qblur=0.5 / ip_ratio=1.40 / pb_ratio=1.30 / aq=1:1.00
    Default : Yes
    Forced : No
    Color range : Limited
    Color primaries : BT.601 PAL
    Transfer characteristics : BT.470 System B, BT.470 System G
    Matrix coefficients : BT.601
    Audio
    ID : 2
    Format : AC-3
    Format/Info : Audio Coding 3
    Mode extension : CM (complete main)
    Format settings, Endianness : Big
    Codec ID : A_AC3
    Duration : 1h 44mn
    Bit rate mode : Constant
    Bit rate : 448 Kbps
    Channel(s) : 6 channels
    Channel positions : Front: L C R, Side: L R, LFE
    Sampling rate : 48.0 KHz
    Compression mode : Lossy
    Stream size : 336 MiB (18%)
    Language : Russian
    Default : Yes
    Forced : No
    Menu
    00:00:00.000 : :Chapter 01
    00:07:36.400 : :Chapter 02
    00:16:37.360 : :Chapter 03
    00:28:33.520 : :Chapter 04
    00:37:31.600 : :Chapter 05
    00:47:00.400 : :Chapter 06
    00:55:09.520 : :Chapter 07
    01:04:44.560 : :Chapter 08
    01:13:52.240 : :Chapter 09
    01:20:49.360 : :Chapter 10
    01:27:15.280 : :Chapter 11
    01:38:10.480 : :Chapter 12
    01:44:55.120 : :Chapter 13

    Скриншот c названием фильма

    Скриншоты

    Скачать .torrent

    Скачать торрент-файл бесплатно и на максимальной скорости!

    Как скачивать? · Что такое торрент? · Рейтинг и ограничения

    !ВНИМАНИЕ!
    Сайт не распространяет и не хранит электронные версии произведений, а занимается лишь лишь предоставлением доступа к создаваемому пользователями каталогу ссылок на торрент-файлы, которые содержат только списки хеш-сумм, убедительная просьба с жалобами обращаться напрямую к пользователю. Файлы для обмена на трекере предоставлены пользователями сайта, и администрация не несёт ответственности за их содержание. Просьба не заливать файлы, защищенные авторскими правами, а также файлы нелегального содержания!


    _________________
    [Профиль] [ЛС]
    Показать сообщения:    
    Ответить на тему

    Текущее время: Сегодня, в 22:42

    Часовой пояс: GMT + 2



    Вы не можете начинать темы
    Вы не можете отвечать на сообщения
    Вы не можете редактировать свои сообщения
    Вы не можете удалять свои сообщения
    Вы не можете голосовать в опросах
    Вы не можете прикреплять файлы к сообщениям
    Вы не можете скачивать файлы