BitTorrentTracker PerecTracker.org
BitTorrentTracker PerecTracker.org
    
Регистрация  ·  Вход
 
 · 
Забыли пароль?

  • Три плюс два (Генрих Оганисян) [1963, комедия, BDRip-AVC]

    Ответить на тему
     
    Автор Сообщение

    Light

    Создавать темы 27-Июн-2015 20:44

           

    [Цитировать]

    Три плюс два (4:3 версия)-Жанр: комедия
    Год выпуска: 1963
    Продолжительность: 01:26:56
    Субтитры: русские-Режиссёр: Генрих Оганисян-В ролях:
    Андрей Миронов, Евгений Жариков, Геннадий Нилов, Наталия Кустинская, Наталья Фатеева
    Описание:
    Трое друзей решили провести отпуск дикарями на берегу Черного моря. Но отдыху героев помешали две девушки, заявившие, что место по праву принадлежит им. Девушки не собираются уезжать и пытаются создать соседям невыносимые условия. Но вскоре вражда перерастает в любовь.-Сэмпл | Кинопоиск-Качество видео: BDRip-AVC / TRI_PLUS_DVA_HDCLUB, спасибо crazy_gringo
    Формат видео: MKV
    Видео: x264 (High@L4.1); 884x624, Display aspect ratio 1.417:1, 23.976 fps, 3393 Kbps
    Аудио: AC-3; 16 bit 48 Khz; Моно 192 Kbps; CBR
    Формат субтитров: softsub (SRT)
    MediaInfo

    -

    x264 log

    avs [info]: 884x624p 1:1 @ 24000/1001 fps (cfr)
    x264 [info]: using SAR=1/1
    x264 [info]: using cpu capabilities: MMX2 SSE2Fast SSSE3 SSE4.2
    x264 [info]: profile High, level 4.1
    x264 [info]: frame I:720 Avg QP:20.84 size: 74184
    x264 [info]: frame P:28503 Avg QP:22.33 size: 31983
    x264 [info]: frame B:95857 Avg QP:24.09 size: 13017
    x264 [info]: consecutive B-frames: 2.4% 3.5% 6.7% 24.9% 21.1% 31.7% 6.1% 2.4% 1.3%
    x264 [info]: mb I I16..4: 2.3% 83.0% 14.7%
    x264 [info]: mb P I16..4: 0.1% 8.9% 1.3% P16..4: 36.3% 39.7% 13.4% 0.0% 0.0% skip: 0.2%
    x264 [info]: mb B I16..4: 0.0% 1.5% 0.2% B16..8: 39.0% 22.9% 4.0% direct: 9.0% skip:23.4% L0:40.7% L1:42.5% BI:16.8%
    x264 [info]: 8x8 transform intra:85.5% inter:64.7%
    x264 [info]: direct mvs spatial:99.1% temporal:0.9%
    x264 [info]: coded y,uvDC,uvAC intra: 95.6% 80.4% 40.5% inter: 45.4% 34.7% 5.5%
    x264 [info]: i16 v,h,dc,p: 13% 40% 7% 41%
    x264 [info]: i8 v,h,dc,ddl,ddr,vr,hd,vl,hu: 6% 13% 4% 9% 14% 12% 16% 10% 14%
    x264 [info]: i4 v,h,dc,ddl,ddr,vr,hd,vl,hu: 5% 31% 2% 6% 12% 11% 14% 8% 12%
    x264 [info]: i8c dc,h,v,p: 33% 32% 19% 17%
    x264 [info]: Weighted P-Frames: Y:30.1% UV:13.4%
    x264 [info]: ref P L0: 39.3% 14.2% 15.1% 6.8% 5.3% 4.2% 3.4% 1.9% 1.8% 1.6% 1.4% 1.2% 1.2% 1.1% 1.1% 0.4%
    x264 [info]: ref B L0: 72.7% 10.3% 4.7% 2.9% 2.1% 1.8% 1.4% 0.9% 0.8% 0.7% 0.6% 0.6% 0.3% 0.2%
    x264 [info]: ref B L1: 94.5% 5.5%
    x264 [info]: kb/s:3393.30
    x264 [total]: encoded 125080 frames, 8.41 fps, 3393.30 kb/s
    -General
    Unique ID : 197694917896044281354208966580335871603 (0x94BAA7FE399E6BFB9585432528C10673)
    Complete name : Три плюс два.1963.mkv
    Format : Matroska
    Format version : Version 2
    File size : 2.18 GiB
    Duration : 1h 26mn
    Overall bit rate : 3 587 Kbps
    Movie name : «Три плюс два»
    Encoded date : UTC 2015-06-27 12:43:16
    Writing application : mkvmerge v5.8.0 ('No Sleep / Pillow') built on Sep 2 2012 15:37:04
    Writing library : libebml v1.2.3 + libmatroska v1.3.0
    Comment : BDRip-AVC
    Originally released : June 27th 2015
    Encoded by : george$t®
    Video
    ID : 1
    Format : AVC
    Format/Info : Advanced Video Codec
    Format profile : High@L4.1
    Format settings, CABAC : Yes
    Format settings, ReFrames : 15 frames
    Codec ID : V_MPEG4/ISO/AVC
    Duration : 1h 26mn
    Bit rate : 3 393 Kbps
    Width : 884 pixels
    Height : 624 pixels
    Display aspect ratio : 1.417
    Frame rate mode : Constant
    Frame rate : 23.976 fps
    Color space : YUV
    Chroma subsampling : 4:2:0
    Bit depth : 8 bits
    Scan type : Progressive
    Bits/(Pixel*Frame) : 0.257
    Stream size : 2.02 GiB (93%)
    Title : Три плюс два.1963
    Writing library : x264 core 146 r2538kMod 121396c
    Encoding settings : cabac=1 / ref=15 / deblock=1:-2:-1 / analyse=0x3:0x113 / me=umh / subme=11 / psy=1 / fade_compensate=0.00 / psy_rd=1.00:0.15 / mixed_ref=1 / me_range=32 / chroma_me=1 / trellis=2 / 8x8dct=1 / cqm=0 / deadzone=21,11 / fast_pskip=0 / chroma_qp_offset=-3 / threads=12 / lookahead_threads=2 / sliced_threads=0 / nr=0 / decimate=0 / interlaced=0 / bluray_compat=0 / constrained_intra=0 / fgo=0 / bframes=8 / b_pyramid=2 / b_adapt=2 / b_bias=0 / direct=3 / weightb=1 / open_gop=0 / weightp=2 / keyint=250 / keyint_min=23 / scenecut=40 / intra_refresh=0 / rc_lookahead=60 / rc=2pass / mbtree=1 / bitrate=3393 / ratetol=1.0 / qcomp=0.80 / qpmin=0 / qpmax=32 / qpstep=4 / cplxblur=20.0 / qblur=0.5 / vbv_maxrate=50000 / vbv_bufsize=62500 / nal_hrd=none / filler=0 / ip_ratio=1.15 / aq=1:0.50
    Language : Russian
    Default : Yes
    Forced : No
    Color primaries : BT.709
    Transfer characteristics : BT.709
    Matrix coefficients : BT.709
    Color range : Limited
    Audio
    ID : 2
    Format : AC-3
    Format/Info : Audio Coding 3
    Mode extension : CM (complete main)
    Format settings, Endianness : Big
    Codec ID : A_AC3
    Duration : 1h 26mn
    Bit rate mode : Constant
    Bit rate : 192 Kbps
    Channel(s) : 1 channel
    Channel positions : Front: C
    Sampling rate : 48.0 KHz
    Bit depth : 16 bits
    Compression mode : Lossy
    Stream size : 119 MiB (5%)
    Title : AC-3; 16 bit 48 Khz; Моно 192 Kbps; CBR
    Language : Russian
    Default : Yes
    Forced : No
    Text
    ID : 3
    Format : UTF-8
    Codec ID : S_TEXT/UTF8
    Codec ID/Info : UTF-8 Plain Text
    Title : Субтитры русские
    Default : No
    Forced : No
    Menu
    00:00:00.000 : ru:Титры
    00:04:06.746 : ru:Клятва "дикарей"
    00:09:13.887 : ru:Неожиданное знакомство
    00:26:42.100 : ru:Идея разделения места
    00:38:44.113 : ru:Фальшивая болезнь
    00:45:45.284 : ru:Совместный поход в город
    00:49:31.886 : ru:В ресторане
    00:55:14.228 : ru:Сон о цирке
    01:02:31.373 : ru:Предложение о прогулке
    01:16:34.673 : ru:Записка
    01:25:19.448 : ru:Песня о любви

    Скриншоты

    Дополнительно / сравнения

    сравнение с DVD
    http://perectracker.org/viewtopic.php?t=2473411
    http://screenshotcomparison.com/comparison/132737
    сравнение с исходником
    http://screenshotcomparison.com/comparison/132742
    * Видеоряд по возможности стабилизирован. Динамические бордюры в некоторых фрагментах фильма колебались от 2 до 16 пикселей в пределах секунды сверху и снизу. Совокупный кроп исходника после стабилизации по 16 верх/низ 1484*1080=>1484*1048
    Просьба сильно не ругать, в некоторых местах эффект стабилизации почти равен нулю, стабилизатору не за что ухватиться (первая минута после титров, первое появление запорожца и ещё в паре-тройке мест). Покадровый пасьянс в домашних условиях мне не по силам.
    Сэмпл без стабилизации (так выглядел бы рип, если бы стабилизация не применялась):
    http://multi-up.com/1055816
    То же со стабилизацией (фрагмент рипа):
    http://multi-up.com/1055817
    Скачать .torrent

    Скачать торрент-файл бесплатно и на максимальной скорости!

    Как скачивать? · Что такое торрент? · Рейтинг и ограничения

    !ВНИМАНИЕ!
    Сайт не распространяет и не хранит электронные версии произведений, а занимается лишь лишь предоставлением доступа к создаваемому пользователями каталогу ссылок на торрент-файлы, которые содержат только списки хеш-сумм, убедительная просьба с жалобами обращаться напрямую к пользователю. Файлы для обмена на трекере предоставлены пользователями сайта, и администрация не несёт ответственности за их содержание. Просьба не заливать файлы, защищенные авторскими правами, а также файлы нелегального содержания!


    _________________
    [Профиль] [ЛС]
    Показать сообщения:    
    Ответить на тему

    Текущее время: Сегодня, в 16:18

    Часовой пояс: GMT + 2



    Вы не можете начинать темы
    Вы не можете отвечать на сообщения
    Вы не можете редактировать свои сообщения
    Вы не можете удалять свои сообщения
    Вы не можете голосовать в опросах
    Вы не можете прикреплять файлы к сообщениям
    Вы не можете скачивать файлы