Register  ·  Log in
Forgot password?

  • Олимпийские игры Гуфи / Goofy\'s All Star Olympics [1991, анимация, VHSRip] AVO Дохалов

    Reply to topic
    Author Message


    Post 27-Jun-2015 21:44



    Олимпийские игры Гуфи / Goofy's All Star Olympics
    Страна: США
    Жанр: анимация
    Продолжительность: 00:45:08
    Год выпуска: 1991
    Перевод: Авторский (одноголосый закадровый) Дохалов
    Русские субтитры: нет
    Режиссёр: не нашел
    Описание: не нашел
    Доп. информация: Оцифровка VHS (личный архив) и получение VHSRip alenavova
    Эксклюзив для При размещении данного релиза на других сайтах ссылка на автора alenavova обязательна.

    Качество: VHSRip
    Формат: AVI
    Видео: 704x528 (1.33:1), 25 fps, XviD build 50 ~2120 kbps avg, 0.23 bit/pixel
    Аудио: 48 kHz, AC3 Dolby Digital, 2/0 (L,R) ch, ~192 kbps
    Субтитры: отсутствуют

    Подробные технические данные

    Олимпийские игры Гуфи - Goofy's All Star Olympics (by alenavova).aviFormat : AVIFormat/Info : Audio Video InterleaveFile size : 750 MiBDuration : 45mn 8sOverall bit rate : 2 322 KbpsMovie name : Олимпийские игры Гуфи - Goofy's All Star Olympics (by alenavova)Director : by alenavovaWriting application : VirtualDubMod | || (build 2550/release)Copyright : Edich2Comment :
    VideoID : 0Format : MPEG-4 VisualFormat profile : Advanced Simple@L5Format settings, BVOP : 1Format settings, QPel : NoFormat settings, GMC : No warppointsFormat settings, Matrix : Default (MPEG)Codec ID : XVIDCodec ID/Hint : XviDDuration : 45mn 8sBit rate : 2 120 KbpsWidth : 704 pixelsHeight : 528 pixelsDisplay aspect ratio : 4:3Frame rate : 25.000 fpsColor space : YUVChroma subsampling : 4:2:0Bit depth : 8 bitsScan type : ProgressiveCompression mode : LossyBits/(Pixel*Frame) : 0.228Stream size : 685 MiB (91%)Writing library : XviD 1.2.1 (UTC 2008-12-04)
    AudioID : 1Format : AC-3Format/Info : Audio Coding 3Mode extension : CM (complete main)Format settings, Endianness : BigCodec ID : 2000Duration : 45mn 8sBit rate mode : ConstantBit rate : 192 KbpsChannel(s) : 2 channelsChannel positions : Front: L RSampling rate : 48.0 KHzBit depth : 16 bitsCompression mode : LossyStream size : 62.0 MiB (8%)Alignment : Split accross interleavesInterleave, duration : 40 ms (1.00 video frame)Interleave, preload duration : 500 ms


    Download .torrent

    Download free and at maximum speed!

    How to Download? · What is a torrent? · Ratings and Limitations

    The site does not extend and does not store electronic(digital) versions of products, and only gives access to a reference catalogue created by users on torrent-files which contain only lists of the hash-sums, the earnest entreaty, with complaints(abuse) to access directly to the user. Files for an exchange on tracker are given by users of a site, and the administration does not bear the responsibility for their maintenance. The request to not fill in the files protected by copyrights, and also files of the illegal maintenance!

    [Profile] [PM]
    Display posts from previous:    
    Reply to topic

    The time now is: Today 21:22

    All times are GMT + 3 Hours

    You cannot post new topics in this forum
    You cannot reply to topics in this forum
    You cannot edit your posts in this forum
    You cannot delete your posts in this forum
    You cannot vote in polls in this forum
    You cannot attach files in this forum
    You cannot download files in this forum