BitTorrentTracker PerecTracker.org
BitTorrentTracker PerecTracker.org
    
Регистрация  ·  Вход
 
 · 
Забыли пароль?

  • Оно / It Follows (Дэвид Роберт Митчелл / David Robert Mitchell) [2014, США, ужасы, детектив, BDRip] VO ((Ал. Матвеев))

    Ответить на тему
     
    Автор Сообщение

    Light

    Создавать темы 27-Июн-2015 20:44

           

    [Цитировать]

    Оно / It Follows /
    Премьера в России - 25 июня 2015
    Страна: США
    Жанр: ужасы, детектив
    Год выпуска: 2014
    Продолжительность: 01:40:12
    Перевод: Одноголосый закадровый (Ал. Матвеев)
    Cубтитры: нет
    Оригинальная аудиодорожка: нет
    Режиссер: Дэвид Роберт Митчелл / David Robert Mitchell
    В ролях: Майка Монро, Кейр Гилкрист,Оливия Луккарди, Лили Сепе, Дэниэл Дзоватто, Джейк Вири,Бэйли Спрай, Дебби Вильямс, Руби Харрис, Леиза Пулидо
    Описание: После интимной связи, школьницу Джей начинает преследовать Нечто. Это Нечто следует за ней повсюду, принимая ужасающие облики. Девушка понимает, что это существо не просто хочет ее напугать, а хочет ее убить. Теперь необходимо либо переспать с кем-нибудь, чтобы передать другому человеку проклятие, либо уничтожить этот ужас раз и навсегда.
    Фильм крайне необычен, из-за этого его и стоит смотреть. В наше время большинство фильмов являются штампованным ширпотребом, особенно в таком жанре, как хоррор. Но эта картина (особенно на фоне других), сегодня просто на вес золота. В ней вас не пугают скримерами и излишне натуралистичной расчленёнкой, здесь этого вообще нет, абсолютно. В этой картине вас будут пугать именно невероятно проработанной атмосферой. Как это удалось создателям? Во-первых, очень напряжённый саундтрек (просто мурашки по телу бегут). Во-вторых, грамотная операторская работа, каждый кадр буквально пронизан давящей на вас атмосферой. В-третьих, хорошие актёрские работы. К тому же, здесь не объясняется происхождение "главного антагониста" - это опять же плюс к атмосфере. Сценарий практически нигде не провисает, напряжение растёт в фильме с каждой минутой и не думает сбавлять обороты.
    Настоятельно рекомендуется любителям умных хорроров и вообще оригинальных фильмов. Если вы слишком впечатлительны, либо обладаете слабой психикой, то там уж на свой страх и риск (порой "It Follows" и впрямь, очень сильно пугает), так что эту ленту вы навряд ли вообще забудете.
    Доп. информация: 7.0
    6.4
    Сэмпл:http://rusfolder.com/43868410
    Качество видео: BDRip
    Формат видео: AVI
    Видео: XVID, Bit rate: 1 630 Kbps , 720 pix x 304 pix, 23.976 fps
    Аудио: AC-3, Bit rate: 448 Kbps , 6 ch, 48.0 KHz

    MediaInfo

    General
    Complete name : F:\Ono.2014.A.BDRip.1.46Gb.avi
    Format : AVI
    Format/Info : Audio Video Interleave
    File size : 1.46 GiB
    Duration : 1h 40mn
    Overall bit rate : 2 088 Kbps
    Movie name : Ono.2014.A.BDRip.1.46Gb_MegaPeer_by_Twi7ter
    Director : Twi7ter
    Genre : Horror/Crime
    Writing application : VirtualDubMod 1.5.10.3 (build 2550/release)
    Original source form/Name : Movie
    Video
    ID : 0
    Format : MPEG-4 Visual
    Format profile : Advanced Simple@L5
    Format settings, BVOP : 2
    Format settings, QPel : No
    Format settings, GMC : No warppoints
    Format settings, Matrix : Custom
    Codec ID : XVID
    Codec ID/Hint : XviD
    Duration : 1h 40mn
    Bit rate : 1 630 Kbps
    Width : 720 pixels
    Height : 304 pixels
    Display aspect ratio : 2.35:1
    Frame rate : 23.976 fps
    Color space : YUV
    Chroma subsampling : 4:2:0
    Bit depth : 8 bits
    Scan type : Progressive
    Compression mode : Lossy
    Bits/(Pixel*Frame) : 0.311
    Stream size : 1.14 GiB (78%)
    Writing library : XviD 73
    Audio
    ID : 1
    Format : AC-3
    Format/Info : Audio Coding 3
    Mode extension : CM (complete main)
    Format settings, Endianness : Big
    Codec ID : 2000
    Duration : 1h 40mn
    Bit rate mode : Constant
    Bit rate : 448 Kbps
    Channel(s) : 6 channels
    Channel positions : Front: L C R, Side: L R, LFE
    Sampling rate : 48.0 KHz
    Compression mode : Lossy
    Stream size : 321 MiB (21%)
    Alignment : Split accross interleaves
    Interleave, duration : 42 ms (1.00 video frame)
    Interleave, preload duration : 500 ms

    Скриншот c названием фильма

    Скриншоты










    Скачать .torrent

    Скачать торрент-файл бесплатно и на максимальной скорости!

    Как скачивать? · Что такое торрент? · Рейтинг и ограничения

    !ВНИМАНИЕ!
    Сайт не распространяет и не хранит электронные версии произведений, а занимается лишь лишь предоставлением доступа к создаваемому пользователями каталогу ссылок на торрент-файлы, которые содержат только списки хеш-сумм, убедительная просьба с жалобами обращаться напрямую к пользователю. Файлы для обмена на трекере предоставлены пользователями сайта, и администрация не несёт ответственности за их содержание. Просьба не заливать файлы, защищенные авторскими правами, а также файлы нелегального содержания!


    _________________
    [Профиль] [ЛС]
    Показать сообщения:    
    Ответить на тему

    Текущее время: Сегодня, в 16:39

    Часовой пояс: GMT + 2



    Вы не можете начинать темы
    Вы не можете отвечать на сообщения
    Вы не можете редактировать свои сообщения
    Вы не можете удалять свои сообщения
    Вы не можете голосовать в опросах
    Вы не можете прикреплять файлы к сообщениям
    Вы не можете скачивать файлы