BitTorrentTracker PerecTracker.org
BitTorrentTracker PerecTracker.org
    
Регистрация  ·  Вход
 
 · 
Забыли пароль?

  • Если не ты, то я / Arrete ou je continue (Софи Фийер / Sophie Fillieres) [2014, Франция, Драма, комедия, DVDRip] Original Fre + Sub Rus

    Ответить на тему
     
    Автор Сообщение

    Light

    Создавать темы 27-Июн-2015 20:44

           

    [Цитировать]

    Если не ты, то я / Arrete ou je continue
    Страна: Франция
    Жанр: Драма, комедия
    Год выпуска: 2014
    Продолжительность: 01:38:10
    Перевод: Субтитры (Playball)
    Cубтитры: русские
    Оригинальная аудиодорожка: французский
    Режиссер: Софи Фийер / Sophie Fillieres
    В ролях: Эммануэль Девос, Матьё Амальрик, Анн Броше, Жозефин де ла Буме, Нельсон Делапальм, Дэвид Кларк, Лоран Пуатрено и др.
    Описание: Помм и Пьер вместе уже давно. Может быть, даже, слишком? Чаша терпения обоих каждый день поплняется каплями обид и взаимных упреков. Однажды, во время очередного похода в близлежащий лес, Помм отказывается возвращаться домой. Это протест.
    Доп. информация: Фильм-участник "Панорамы" 64-го Берлинского кинофестиваля.
    Сэмпл: http://multi-up.com/1055743
    Качество видео: DVDRip
    Формат видео: AVI
    Видео: XVID, 624:336 (1.85:1), 25.000 fps, 1 537 Kbps
    Аудио: AC-3, 48.0 KHz, 448 Kbps, 6 channels
    Формат субтитров: softsub (SRT)

    Пример субтитров

    1
    00:00:43,240 --> 00:00:48,640
    Иисус просит нас быть быть паиньками.
    2
    00:00:50,080 --> 00:00:50,920
    Вот как.
    3
    00:00:51,920 --> 00:00:52,720
    Серьезно?
    4
    00:01:05,600 --> 00:01:07,040
    Как ему не стыдно.
    5
    00:01:08,560 --> 00:01:10,320
    Просить нас о таком.
    6
    00:01:11,320 --> 00:01:13,560
    Причастись. Это моя кровь.
    7
    00:01:21,920 --> 00:01:23,840
    Подскажите, где здесь туалет?
    8
    00:01:24,240 --> 00:01:26,080
    Я здесь не работаю.
    9
    00:01:26,520 --> 00:01:27,400
    А...
    10
    00:01:27,760 --> 00:01:29,720
    Ну все равно, вы же можете знать.
    11
    00:01:30,960 --> 00:01:32,400
    На нижнем этаже, слева.
    12
    00:01:32,840 --> 00:01:33,720
    Ну вот.
    13
    00:01:35,240 --> 00:01:36,280
    И вам спасибо.
    14
    00:01:39,640 --> 00:01:40,560
    Пойдем?
    15
    00:01:41,520 --> 00:01:44,120
    Я еще толком ничего не видела.
    Даже Бена не поприветствовала.
    16
    00:01:44,360 --> 00:01:46,040
    Все нормально,
    я сказал ему, что ты здесь.
    17
    00:01:46,360 --> 00:01:47,960
    Вообще-то это не одно и тоже.
    18
    00:01:48,320 --> 00:01:50,960
    Он знает, что ты пришла на выставку.
    Разве не это главное?
    19
    00:01:51,200 --> 00:01:53,200
    Нет, если не посмотреть на его работы.
    20
    00:01:53,960 --> 00:01:57,280
    Ты не хочешь, чтобы я подходила,
    потому что он мне нравится. Тебя это выводит.
    21
    00:01:58,120 --> 00:02:01,000
    Ничего меня не выводит.
    С чего ты взяла?

    MediaInfo

    General
    Complete name : D:\КИНО\Arrete.Ou.Je.Continue.2014.avi
    Format : AVI
    Format/Info : Audio Video Interleave
    File size : 1.37 GiB
    Duration : 1h 38mn
    Overall bit rate : 1 995 Kbps
    Writing application : FairUse Wizard - http://fairusewizard.com
    Writing library : The best and REALLY easy backup tool
    Video
    ID : 0
    Format : MPEG-4 Visual
    Format profile : Advanced Simple@L5
    Format settings, BVOP : 1
    Format settings, QPel : No
    Format settings, GMC : No warppoints
    Format settings, Matrix : Default (MPEG)
    Muxing mode : Packed bitstream
    Codec ID : XVID
    Codec ID/Hint : XviD
    Duration : 1h 38mn
    Bit rate : 1 537 Kbps
    Width : 624 pixels
    Height : 336 pixels
    Display aspect ratio : 1.85:1
    Frame rate : 25.000 fps
    Color space : YUV
    Chroma subsampling : 4:2:0
    Bit depth : 8 bits
    Scan type : Progressive
    Compression mode : Lossy
    Bits/(Pixel*Frame) : 0.293
    Stream size : 1.05 GiB (77%)
    Writing library : XviD 1.2.0.dev47 (UTC 2006-11-01)
    Audio
    ID : 1
    Format : AC-3
    Format/Info : Audio Coding 3
    Mode extension : CM (complete main)
    Format settings, Endianness : Big
    Codec ID : 2000
    Duration : 1h 38mn
    Bit rate mode : Constant
    Bit rate : 448 Kbps
    Channel(s) : 6 channels
    Channel positions : Front: L C R, Side: L R, LFE
    Sampling rate : 48.0 KHz
    Bit depth : 16 bits
    Compression mode : Lossy
    Stream size : 315 MiB (22%)
    Alignment : Split accross interleaves
    Interleave, duration : 40 ms (1.00 video frame)
    Interleave, preload duration : 500 ms

    Скриншот c названием фильма

    Скриншоты

    Скачать .torrent

    Скачать торрент-файл бесплатно и на максимальной скорости!

    Как скачивать? · Что такое торрент? · Рейтинг и ограничения

    !ВНИМАНИЕ!
    Сайт не распространяет и не хранит электронные версии произведений, а занимается лишь лишь предоставлением доступа к создаваемому пользователями каталогу ссылок на торрент-файлы, которые содержат только списки хеш-сумм, убедительная просьба с жалобами обращаться напрямую к пользователю. Файлы для обмена на трекере предоставлены пользователями сайта, и администрация не несёт ответственности за их содержание. Просьба не заливать файлы, защищенные авторскими правами, а также файлы нелегального содержания!


    _________________
    [Профиль] [ЛС]
    Показать сообщения:    
    Ответить на тему

    Текущее время: Сегодня, в 22:37

    Часовой пояс: GMT + 2



    Вы не можете начинать темы
    Вы не можете отвечать на сообщения
    Вы не можете редактировать свои сообщения
    Вы не можете удалять свои сообщения
    Вы не можете голосовать в опросах
    Вы не можете прикреплять файлы к сообщениям
    Вы не можете скачивать файлы