BitTorrentTracker PerecTracker.org
BitTorrentTracker PerecTracker.org
    
Регистрация  ·  Вход
 
 · 
Забыли пароль?

  • Соучастие в убийстве (Владимир Краснопольский, Валерий Усков) [1986, Детектив, экранизация, SATRip]

    Ответить на тему
     
    Автор Сообщение

    Light

    Создавать темы 27-Июн-2015 12:20

           

    [Цитировать]

    Соучастие в убийстве
    Жанр: Детектив, экранизация
    Год выпуска: 1986
    Продолжительность: 1:34:58
    Режиссёр: Владимир Краснопольский, Валерий Усков
    В ролях: Эвальд Хермакюла, Ролан Быков, Чезара Дафинеску, Олег Басилашвили, Георгий Юматов, Михаил Данилов, Ион Дикисяну, Валерий Гатаев, Дмитрий Писаренко, Александр Кудинов, Эдуардас Кунавичюс, Алексей Преснецов, Майт Агу, Юрис Стренга, Борис Клюев, Ирина Губанова, Нонна Терентьева
    Описание: По одноименному роману Джуды Уотена.
    Бет Тайсон убита в своем особняке. Старший инспектор Филдс, инспектор Брамелл и сыщик Филберт имеют три разные версии этого преступления...
    Доп. информация: Производство: Мосфильм
    Местами всплывают банеры с рекламой
    Семпл: https://www.sendspace.com/file/lxsq5t
    Качество видео: SATRip
    Формат видео: AVI
    Видео: XviD MPEG-4 , 704x528 (1.33:1) , 25 fps , 1 993 Kbps
    Аудио: AC3 , 48 kHz , 192.00 kbps avg , 2/0 (L,R) ch

    MediaInfo

    Complete name Соучастие в убийстве.avi
    Format : AVI
    Format/Info : Audio Video Interleave
    File size : 1.46 GiB
    Duration : 1h 34mn
    Overall bit rate : 2 194 Kbps
    Writing library : VirtualDub build 35491/release
    Video
    ID : 0
    Format : MPEG-4 Visual
    Format profile : Advanced Simple@L5
    Format settings, BVOP : 2
    Format settings, QPel : No
    Format settings, GMC : No warppoints
    Format settings, Matrix : Default (H.263)
    Codec ID : XVID
    Codec ID/Hint : XviD
    Duration : 1h 34mn
    Bit rate : 1 993 Kbps
    Width : 704 pixels
    Height : 528 pixels
    Display aspect ratio : 4:3
    Frame rate : 25.000 fps
    Color space : YUV
    Chroma subsampling : 4:2:0
    Bit depth : 8 bits
    Scan type : Progressive
    Compression mode : Lossy
    Bits/(Pixel*Frame) : 0.214
    Stream size : 1.32 GiB (91%)
    Writing library : XviD 1.2.1 (UTC 2008-12-04)
    Audio
    ID : 1
    Format : AC-3
    Format/Info : Audio Coding 3
    Mode extension : CM (complete main)
    Format settings, Endianness : Big
    Codec ID : 2000
    Duration : 1h 34mn
    Bit rate mode : Constant
    Bit rate : 192 Kbps
    Channel(s) : 2 channels
    Channel positions : Front: L R
    Sampling rate : 48.0 KHz
    Bit depth : 16 bits
    Compression mode : Lossy
    Stream size : 130 MiB (9%)
    Alignment : Aligned on interleaves
    Interleave, duration : 40 ms (1.00 video frame)
    Interleave, preload duratio : 512 ms

    Скриншоты

    Скачать .torrent

    Скачать торрент-файл бесплатно и на максимальной скорости!

    Как скачивать? · Что такое торрент? · Рейтинг и ограничения

    !ВНИМАНИЕ!
    Сайт не распространяет и не хранит электронные версии произведений, а занимается лишь лишь предоставлением доступа к создаваемому пользователями каталогу ссылок на торрент-файлы, которые содержат только списки хеш-сумм, убедительная просьба с жалобами обращаться напрямую к пользователю. Файлы для обмена на трекере предоставлены пользователями сайта, и администрация не несёт ответственности за их содержание. Просьба не заливать файлы, защищенные авторскими правами, а также файлы нелегального содержания!


    _________________
    [Профиль] [ЛС]
    Показать сообщения:    
    Ответить на тему

    Текущее время: Сегодня, в 20:12

    Часовой пояс: GMT + 2



    Вы не можете начинать темы
    Вы не можете отвечать на сообщения
    Вы не можете редактировать свои сообщения
    Вы не можете удалять свои сообщения
    Вы не можете голосовать в опросах
    Вы не можете прикреплять файлы к сообщениям
    Вы не можете скачивать файлы