BitTorrentTracker PerecTracker.org
BitTorrentTracker PerecTracker.org
    
Регистрация  ·  Вход
 
 · 
Забыли пароль?

  • Вне времени / The Lovers (Роланд Жоффе / Roland Joffé) [2014, Австралия, Великобритания, Фантастика, боевик, мелодрама, приключения, HDRip] Dub (iTunes)

    Ответить на тему
     
    Автор Сообщение

    Light

    Создавать темы 27-Июн-2015 03:56

           

    [Цитировать]

    Вне времени / The Lovers«Жизнь достойна борьбы, любовь достойна смерти»--Страна: Австралия, Великобритания
    Жанр: Фантастика, боевик, мелодрама, приключения
    Год выпуска: 2014
    Продолжительность: 01:49:21
    Перевод: Профессиональный (дублированный) iTunes
    Cубтитры: нет-Режиссер: Роланд Жоффе / Roland Joffé-В ролях: Джош Хартнетт, Тэмзин Эджертон, Элис Энглерт, Клер ван дер Бом, Махеш Джаду, Ом Пури, Симона Кэссел, Темина Санни, Бипаша Басу, Андреа Дэк-Описание: Это история о храбрости и великой силе любви. Археолог-подводник Джей Финнел вместе с женой исследует затонувшее торговое судно XVIII века. Однажды, пытаясь спасти супругу, он получает опасное ранение и впадает в кому. Борясь со смертью, герой переступает грань реальности и переносится в Индию 1778 года, где начинает жить жизнью британского офицера Джеймса Стюарта, поглощенного страстью к прекрасной воительнице Туладже.-Доп. информация:
    -Сэмпл: http://multi-up.com/1055569-Качество видео: HDRip (исходник неизвестен)
    Формат видео: AVI
    Видео: XviD, 720x304 (2.35:1), 23.976 fps, 1 397 Kbps (0.266 bit/pixel)
    Аудио: AC-3, 48.0 KHz, 6 ch, 384 Kbps, CBR

    MediaInfo

    General
    Complete name : D:\Torrents\Vne.Vremen1.2015.D.HDRip.1400Mb.avi
    Format : AVI
    Format/Info : Audio Video Interleave
    File size : 1.37 GiB
    Duration : 1h 49mn
    Overall bit rate : 1 791 Kbps
    Writing application : VirtualDubMod 1.5.10.2 (build 2540/release)
    Writing library : VirtualDubMod build 2540/release
    Video #0
    ID : 0
    Format : MPEG-4 Visual
    Format profile : Advanced Simple@L5
    Format settings, BVOP : 2
    Format settings, QPel : No
    Format settings, GMC : No warppoints
    Format settings, Matrix : Default (MPEG)
    Codec ID : XVID
    Codec ID/Hint : XviD
    Duration : 1h 49mn
    Bit rate : 1 397 Kbps
    Width : 720 pixels
    Height : 304 pixels
    Display aspect ratio : 2.35:1
    Frame rate : 23.976 fps
    Color space : YUV
    Chroma subsampling : 4:2:0
    Bit depth : 8 bits
    Scan type : Progressive
    Compression mode : Lossy
    Bits/(Pixel*Frame) : 0.266
    Stream size : 1.07 GiB (78%)
    Writing library : XviD 1.2.1 (UTC 2008-12-04)
    Audio #1
    ID : 1
    Format : AC-3
    Format/Info : Audio Coding 3
    Mode extension : CM (complete main)
    Format settings, Endianness : Big
    Codec ID : 2000
    Duration : 1h 49mn
    Bit rate mode : Constant
    Bit rate : 384 Kbps
    Channel count : 6 channels
    Channel positions : Front: L C R, Side: L R, LFE
    Sampling rate : 48.0 KHz
    Bit depth : 16 bits
    Compression mode : Lossy
    Stream size : 301 MiB (21%)
    Alignment : Split accross interleaves
    Interleave, duration : 42 ms (1.00 video frame)
    Interleave, preload duration : 500 ms

    Скриншот c названием фильма

    Скриншоты

    Скачать .torrent

    Скачать торрент-файл бесплатно и на максимальной скорости!

    Как скачивать? · Что такое торрент? · Рейтинг и ограничения

    !ВНИМАНИЕ!
    Сайт не распространяет и не хранит электронные версии произведений, а занимается лишь лишь предоставлением доступа к создаваемому пользователями каталогу ссылок на торрент-файлы, которые содержат только списки хеш-сумм, убедительная просьба с жалобами обращаться напрямую к пользователю. Файлы для обмена на трекере предоставлены пользователями сайта, и администрация не несёт ответственности за их содержание. Просьба не заливать файлы, защищенные авторскими правами, а также файлы нелегального содержания!


    _________________
    [Профиль] [ЛС]
    Показать сообщения:    
    Ответить на тему

    Текущее время: Сегодня, в 12:45

    Часовой пояс: GMT + 2



    Вы не можете начинать темы
    Вы не можете отвечать на сообщения
    Вы не можете редактировать свои сообщения
    Вы не можете удалять свои сообщения
    Вы не можете голосовать в опросах
    Вы не можете прикреплять файлы к сообщениям
    Вы не можете скачивать файлы