BitTorrentTracker PerecTracker.org
BitTorrentTracker PerecTracker.org
    
Регистрация  ·  Вход
 
 · 
Забыли пароль?

  • Мумия. В поисках потерянных свитков / The Mummy: Quest for lost scrolls (Эдди Хочинс / Eddy Houchins) [2002, мультфильм, детский, семейный, SATRip] DUB

    Ответить на тему
     
    Автор Сообщение

    rechyn

    Создавать темы 26-Июн-2015 23:44

           

    [Цитировать]

    Мумия. В поисках потерянных свитков
    The Mummy: Quest for lost scrolls
    Страна: США
    Жанр: мультфильм, детский, семейный
    Продолжительность: 01:00:25
    Год выпуска: 2002-Перевод: Профессиональный (дублированный) - Объединение "Русский дубляж" по заказу СТС, 2010 год
    Русские субтитры: нет
    Режиссёр: Эдди Хочинс / Eddy Houchins-Роли дублировали: Денис Некрасов, Ольга Шорохова, Ирина Гришина, Диомид Виноградов, Андрей Симанов-Описание: Одиннадцатилетний Алекс вечно попадает в истории! Но о таких событиях он даже не мог мечтать. В центре сюжета увлекательного мультфильма – приключения мальчика и его родителей, которые должны отыскать древние свитки. Письмена могут помочь разгадать удивительную тайну. Но на пути героев встает мумия-Релиз:
    | | -Качество: SATRip
    Формат: AVI
    Видео: 704x528 (1.33:1), 25,000 fps, XviD 65 ~1 589 kbps avg, 0.17 bit/pixel
    Аудио: 48.0 kHz, MPEG Layer 3, 2/0 (L,R) ch, ~128 kbps
    Субтитры: отсутствуют

    MI


    Общее
    Полное имя : E:\incarcare\rip gata\Мумия.В.поисках.потерянных.свитков.2002.SATRip.avi
    Формат : AVI
    Формат/Информация : Audio Video Interleave
    Размер файла : 746 Мбайт
    Продолжительность : 1 ч. 0 м.
    Общий поток : 1726 Кбит/сек
    Программа кодирования : VirtualDubMod 1.5.10.2 (build 2540/release)
    Библиотека кодирования : VirtualDubMod build 2540/release
    Видео
    Идентификатор : 0
    Формат : MPEG-4 Visual
    Профиль формата : Advanced Simple@L5
    Параметр BVOP формата : 1
    Параметр QPel формата : Нет
    Параметр GMC формата : Без точки перехода
    Параметр матрицы формата : Выборочная
    Идентификатор кодека : XVID
    Идентификатор кодека/Подсказка : XviD
    Продолжительность : 1 ч. 0 м.
    Битрейт : 1589 Кбит/сек
    Ширина : 704 пикселя
    Высота : 528 пикселей
    Соотношение сторон : 4:3
    Частота кадров : 25,000 кадров/сек
    Цветовое пространство : YUV
    Субдискретизация насыщенности : 4:2:0
    Битовая глубина : 8 бит
    Тип развёртки : Прогрессивная
    Метод сжатия : С потерями
    Бит/(Пиксели*Кадры) : 0.171
    Размер потока : 687 Мбайт (92%)
    Библиотека кодирования : XviD 65
    Аудио
    Идентификатор : 1
    Формат : MPEG Audio
    Версия формата : Version 1
    Профиль формата : Layer 3
    Идентификатор кодека : 55
    Идентификатор кодека/Подсказка : MP3
    Продолжительность : 1 ч. 0 м.
    Вид битрейта : Постоянный
    Битрейт : 128 Кбит/сек
    Каналы : 2 канала
    Частота : 48,0 КГц
    Метод сжатия : С потерями
    Размер потока : 55,3 Мбайт (7%)
    Выравнивание : Соединение по промежуткам
    Продолжительность промежутка : 40 мс. (1,00 видеокадр)
    Время предзагрузки промежутка : 504 мс.

    Скриншоты


    _________________
    [Профиль] [ЛС]
    Показать сообщения:    
    Ответить на тему

    Текущее время: Сегодня, в 13:52

    Часовой пояс: GMT + 2



    Вы не можете начинать темы
    Вы не можете отвечать на сообщения
    Вы не можете редактировать свои сообщения
    Вы не можете удалять свои сообщения
    Вы не можете голосовать в опросах
    Вы не можете прикреплять файлы к сообщениям
    Вы не можете скачивать файлы