BitTorrentTracker PerecTracker.org
BitTorrentTracker PerecTracker.org
    
Регистрация  ·  Вход
 
 · 
Забыли пароль?

  • Дорога домой (Юлиан Панич) [1967, Драма, военный, TVRip]

    Ответить на тему
     
    Автор Сообщение

    Light

    Создавать темы 25-Июн-2015 22:32

           

    [Цитировать]

    Дорога домой
    Жанр: Драма, военный
    Год выпуска: 1967
    Продолжительность: 2 серии (01:01:58 + 00:52:33)

    Режиссёр: Юлиан Панич
    В ролях: Зоя Александрова, Петр Горин, Виктория Горшенина, Юрий Дедович, Лев Елисеев, Михаил Екатерининский, Валерий Зимин, Валерий Караваев, Павел Кашлаков, Иван Краско, Игорь Класс, Святослав Кузнецов, Борис Лескин, Михаил Ладыгин, Валентин Маслов, Владимир Михайловский, Василий Минин, Валерий Ольшанский, Владимир Особик, Юрий Оськин, Юлиан Панич, Георгий Прусов, Владимир Тыкке, Ю. Голиняк, В. Зименков, М. Скаржинский
    Описание: Весна 1944 года. Польша.
    Партизанский отряд, сформированный из советских военнопленных, бежавших из концлагеря, пробивается на Родину...

    Доп. информация: Фильм получил Первый приз Всесоюзного фестиваля телевизионных фильмов в 1969 году.

    Качество видео: TVRip
    Формат видео: AVI
    Видео: 640x480 (1.33:1), 25 fps, XviD MPEG-4 ~1693 kbps avg, 0.22 bit/pixel
    Аудио: 44.100 kHz, MPEG Layer 3, 2 ch, ~128.00 kbps avg

    MediaInfo

    Complete name : Doroga.domoi.1.avi
    Format : AVI
    Format/Info : Audio Video Interleave
    File size : 813 MiB
    Duration : 1h 1mn
    Overall bit rate : 1 834 Kbps
    Writing application : VirtualDubModRus 1.5.10.2 (build 2542/release)
    Writing library : VirtualDub build 32842/release
    Video
    ID : 0
    Format : MPEG-4 Visual
    Format profile : Advanced Simple@L5
    Format settings, BVOP : Yes
    Format settings, QPel : No
    Format settings, GMC : No warppoints
    Format settings, Matrix : Default (H.263)
    Codec ID : XVID
    Codec ID/Hint : XviD
    Duration : 1h 1mn
    Bit rate : 1 697 Kbps
    Width : 640 pixels
    Height : 480 pixels
    Display aspect ratio : 4:3
    Frame rate : 25.000 fps
    Color space : YUV
    Chroma subsampling : 4:2:0
    Bit depth : 8 bits
    Scan type : Progressive
    Compression mode : Lossy
    Bits/(Pixel*Frame) : 0.221
    Stream size : 752 MiB (92%)
    Writing library : XviD 73
    Audio
    ID : 1
    Format : MPEG Audio
    Format version : Version 1
    Format profile : Layer 3
    Mode : Joint stereo
    Mode extension : MS Stereo
    Codec ID : 55
    Codec ID/Hint : MP3
    Duration : 1h 1mn
    Bit rate mode : Constant
    Bit rate : 128 Kbps
    Channel(s) : 2 channels
    Sampling rate : 44.1 KHz
    Compression mode : Lossy
    Delay relative to video : 150ms
    Stream size : 56.7 MiB (7%)
    Alignment : Split accross interleaves
    Interleave, duration : 40 ms (1.00 video frame)
    Interleave, preload duration : 500 ms
    Complete name : Doroga.domoi.2.avi
    Format : AVI
    Format/Info : Audio Video Interleave
    File size : 687 MiB
    Duration : 52mn 32s
    Overall bit rate : 1 828 Kbps
    Writing application : VirtualDubModRus 1.5.10.2 (build 2542/release)
    Writing library : VirtualDub build 32842/release
    Video
    ID : 0
    Format : MPEG-4 Visual
    Format profile : Advanced Simple@L5
    Format settings, BVOP : Yes
    Format settings, QPel : No
    Format settings, GMC : No warppoints
    Format settings, Matrix : Default (H.263)
    Codec ID : XVID
    Codec ID/Hint : XviD
    Duration : 52mn 32s
    Bit rate : 1 690 Kbps
    Width : 640 pixels
    Height : 480 pixels
    Display aspect ratio : 4:3
    Frame rate : 25.000 fps
    Color space : YUV
    Chroma subsampling : 4:2:0
    Bit depth : 8 bits
    Scan type : Progressive
    Compression mode : Lossy
    Bits/(Pixel*Frame) : 0.220
    Stream size : 635 MiB (92%)
    Writing library : XviD 73
    Audio
    ID : 1
    Format : MPEG Audio
    Format version : Version 1
    Format profile : Layer 3
    Mode : Joint stereo
    Mode extension : MS Stereo
    Codec ID : 55
    Codec ID/Hint : MP3
    Duration : 52mn 32s
    Bit rate mode : Constant
    Bit rate : 128 Kbps
    Channel(s) : 2 channels
    Sampling rate : 44.1 KHz
    Compression mode : Lossy
    Delay relative to video : 150ms
    Stream size : 48.1 MiB (7%)
    Alignment : Split accross interleaves
    Interleave, duration : 40 ms (1.00 video frame)
    Interleave, preload duration : 500 ms

    Скриншоты


    Скачать .torrent

    Скачать торрент-файл бесплатно и на максимальной скорости!

    Как скачивать? · Что такое торрент? · Рейтинг и ограничения

    !ВНИМАНИЕ!
    Сайт не распространяет и не хранит электронные версии произведений, а занимается лишь лишь предоставлением доступа к создаваемому пользователями каталогу ссылок на торрент-файлы, которые содержат только списки хеш-сумм, убедительная просьба с жалобами обращаться напрямую к пользователю. Файлы для обмена на трекере предоставлены пользователями сайта, и администрация не несёт ответственности за их содержание. Просьба не заливать файлы, защищенные авторскими правами, а также файлы нелегального содержания!


    _________________
    [Профиль] [ЛС]
    Показать сообщения:    
    Ответить на тему

    Текущее время: Сегодня, в 09:58

    Часовой пояс: GMT + 2



    Вы не можете начинать темы
    Вы не можете отвечать на сообщения
    Вы не можете редактировать свои сообщения
    Вы не можете удалять свои сообщения
    Вы не можете голосовать в опросах
    Вы не можете прикреплять файлы к сообщениям
    Вы не можете скачивать файлы