BitTorrentTracker PerecTracker.org
BitTorrentTracker PerecTracker.org
    
Регистрация  ·  Вход
 
 · 
Забыли пароль?

  • Белорусский вокзал (Андрей Смирнов) [1971, драма, BDRip-AVC]

    Ответить на тему
     
    Автор Сообщение

    Light

    Создавать темы 25-Июн-2015 18:20

           

    [Цитировать]

    Белорусский вокзал-Жанр: драма
    Год выпуска: 1971
    Продолжительность: 01:39:22
    Субтитры: русские, английские-Режиссёр: Андрей Смирнов-В ролях:
    Алексей Глазырин, Евгений Леонов, Анатолий Папанов, Всеволод Сафонов, Нина Ургант, Раиса Куркина, Любовь Соколова, Маргарита Терехова, Никифор Колофидин, Юрий Орлов, Николай Волков младший, Александр Январёв, Валентина Ананьина, Людмила Аринина, Юрий Визбор, Юрий Волынцев, Владимир Грамматиков, Кира Жаркова, Валерий Малышев, Виктор Проскурин, Федор Селезнёв, Елена Скачкова, Николай Граббе
    Описание:
    Герои фильма расстались на Белорусском вокзале летом 1945-го. Спустя четверть века они встречаются на похоронах боевого товарища. В их душах с новой силой оживает пережитое. Время не властно над их памятью: ветераны сохранили верность фронтовой дружбе, способность жертвовать собой, неистребимую любовь к жизни.-Сэмпл | Кинопоиск-Качество видео: BDRip-AVC / BELORUS_HDCLUB, спасибо crazy_gringo
    Формат видео: MKV
    Видео: x264 (High@L4.1); 1152x490, Display aspect ratio 2.351:1, 23.976 fps, 3543 Kbps
    Аудио 1: Оригинал: AC-3; 16 bit 48 Khz; 5.1 ch 448 Kbps; CBR
    Аудио 2: AC-3; 16 bit 48 Khz; Моно 192 Kbps; CBR
    Формат субтитров: softsub (SRT)

    MediaInfo


    -

    x264 log

    avs [info]: 1152x490p 1:1 @ 24000/1001 fps (cfr)
    x264 [info]: using SAR=1/1
    x264 [info]: using cpu capabilities: MMX2 SSE2Fast SSSE3 SSE4.2
    x264 [info]: profile High, level 4.1
    x264 [info]: frame I:698 Avg QP:16.39 size:109697
    x264 [info]: frame P:29343 Avg QP:18.73 size: 48890
    x264 [info]: frame B:112926 Avg QP:21.73 size: 10000
    x264 [info]: consecutive B-frames: 1.3% 2.0% 7.1% 12.7% 15.6% 54.9% 5.4% 0.1% 0.8%
    x264 [info]: mb I I16..4: 2.1% 79.2% 18.7%
    x264 [info]: mb P I16..4: 0.1% 6.7% 0.7% P16..4: 28.3% 38.4% 21.7% 3.4% 0.4% skip: 0.4%
    x264 [info]: mb B I16..4: 0.0% 0.5% 0.1% B16..8: 37.2% 21.7% 4.8% direct: 5.5% skip:30.2% L0:37.8% L1:48.2% BI:14.0%
    x264 [info]: 8x8 transform intra:88.0% inter:56.0%
    x264 [info]: direct mvs spatial:99.6% temporal:0.4%
    x264 [info]: coded y,uvDC,uvAC intra: 98.4% 71.4% 46.0% inter: 33.1% 17.8% 7.7%
    x264 [info]: i16 v,h,dc,p: 17% 20% 3% 60%
    x264 [info]: i8 v,h,dc,ddl,ddr,vr,hd,vl,hu: 10% 7% 6% 10% 15% 14% 13% 12% 12%
    x264 [info]: i4 v,h,dc,ddl,ddr,vr,hd,vl,hu: 11% 8% 3% 9% 16% 15% 14% 12% 12%
    x264 [info]: i8c dc,h,v,p: 41% 26% 20% 14%
    x264 [info]: Weighted P-Frames: Y:3.2% UV:0.8%
    x264 [info]: ref P L0: 42.8% 14.0% 18.0% 4.4% 4.7% 2.7% 3.3% 1.5% 1.9% 1.2% 1.6% 1.1% 1.5% 1.1% 0.1% 0.0%
    x264 [info]: ref B L0: 83.3% 8.7% 2.5% 1.3% 0.9% 0.8% 0.6% 0.4% 0.4% 0.3% 0.3% 0.2% 0.1%
    x264 [info]: ref B L1: 95.6% 4.4%
    x264 [info]: kb/s:3542.46
    x264 [total]: encoded 142967 frames, 8.88 fps, 3542.46 kb/s
    -General
    Unique ID : 180708631453534996327213699718106385047 (0x87F337696F5A66F0811D1AD3FF910A97)
    Complete name : Белорусский вокзал.1971.mkv
    Format : Matroska
    Format version : Version 2
    File size : 2.90 GiB
    Duration : 1h 39mn
    Overall bit rate : 4 184 Kbps
    Movie name : «Белорусский вокзал»
    Encoded date : UTC 2015-06-25 11:19:49
    Writing application : mkvmerge v5.8.0 ('No Sleep / Pillow') built on Sep 2 2012 15:37:04
    Writing library : libebml v1.2.3 + libmatroska v1.3.0
    Comment : BDRip-AVC
    Originally released : June 24th 2015
    Encoded by : george$t®
    Video
    ID : 1
    Format : AVC
    Format/Info : Advanced Video Codec
    Format profile : High@L4.1
    Format settings, CABAC : Yes
    Format settings, ReFrames : 14 frames
    Codec ID : V_MPEG4/ISO/AVC
    Duration : 1h 39mn
    Bit rate : 3 542 Kbps
    Width : 1 152 pixels
    Height : 490 pixels
    Display aspect ratio : 2.35:1
    Frame rate mode : Constant
    Frame rate : 23.976 fps
    Color space : YUV
    Chroma subsampling : 4:2:0
    Bit depth : 8 bits
    Scan type : Progressive
    Bits/(Pixel*Frame) : 0.262
    Stream size : 2.40 GiB (83%)
    Title : Белорусский вокзал.1971
    Writing library : x264 core 146 r2538kMod 121396c
    Encoding settings : cabac=1 / ref=14 / deblock=1:-3:-2 / analyse=0x3:0x133 / me=umh / subme=11 / psy=1 / fade_compensate=0.00 / psy_rd=1.01:0.01 / mixed_ref=1 / me_range=32 / chroma_me=1 / trellis=2 / 8x8dct=1 / cqm=0 / deadzone=21,11 / fast_pskip=0 / chroma_qp_offset=-3 / threads=12 / lookahead_threads=2 / sliced_threads=0 / nr=0 / decimate=0 / interlaced=0 / bluray_compat=0 / constrained_intra=0 / fgo=0 / bframes=8 / b_pyramid=2 / b_adapt=2 / b_bias=0 / direct=3 / weightb=1 / open_gop=0 / weightp=2 / keyint=250 / keyint_min=23 / scenecut=40 / intra_refresh=0 / rc_lookahead=60 / rc=2pass / mbtree=1 / bitrate=3542 / ratetol=1.0 / qcomp=0.65 / qpmin=0 / qpmax=32 / qpstep=4 / cplxblur=20.0 / qblur=0.5 / vbv_maxrate=50000 / vbv_bufsize=62500 / nal_hrd=none / filler=0 / ip_ratio=1.25 / aq=1:0.60
    Language : Russian
    Default : Yes
    Forced : No
    Color primaries : BT.709
    Transfer characteristics : BT.709
    Matrix coefficients : BT.709
    Color range : Limited
    Audio #1
    ID : 2
    Format : AC-3
    Format/Info : Audio Coding 3
    Mode extension : CM (complete main)
    Format settings, Endianness : Big
    Codec ID : A_AC3
    Duration : 1h 39mn
    Bit rate mode : Constant
    Bit rate : 448 Kbps
    Channel(s) : 6 channels
    Channel positions : Front: L C R, Side: L R, LFE
    Sampling rate : 48.0 KHz
    Bit depth : 16 bits
    Compression mode : Lossy
    Stream size : 318 MiB (11%)
    Title : Оригинал: AC-3; 16 bit 48 Khz; 5.1 ch 448 Kbps; CBR
    Language : Russian
    Default : Yes
    Forced : No
    Audio #2
    ID : 3
    Format : AC-3
    Format/Info : Audio Coding 3
    Mode extension : CM (complete main)
    Format settings, Endianness : Big
    Codec ID : A_AC3
    Duration : 1h 39mn
    Bit rate mode : Constant
    Bit rate : 192 Kbps
    Channel(s) : 1 channel
    Channel positions : Front: C
    Sampling rate : 48.0 KHz
    Bit depth : 16 bits
    Compression mode : Lossy
    Stream size : 136 MiB (5%)
    Title : AC-3; 16 bit 48 Khz; Mono 192 Kbps; CBR
    Language : Russian
    Default : No
    Forced : No
    Text #1
    ID : 4
    Format : UTF-8
    Codec ID : S_TEXT/UTF8
    Codec ID/Info : UTF-8 Plain Text
    Title : Субтитры русские
    Language : Russian
    Default : No
    Forced : No
    Text #2
    ID : 5
    Format : UTF-8
    Codec ID : S_TEXT/UTF8
    Codec ID/Info : UTF-8 Plain Text
    Title : Субтитры английские
    Language : English
    Default : No
    Forced : No
    Menu
    00:00:00.000 : ru:Похороны Вали
    00:08:05.985 : ru:Харламыч
    00:11:20.096 : ru:Поминки
    00:23:39.209 : ru:Дубинушка
    00:31:44.528 : ru:В кафе
    00:43:29.357 : ru:Ваня
    00:50:18.933 : ru:Авария
    00:53:45.597 : ru:"Подбрось до больницы!.."
    00:56:33.056 : ru:Институт Склифосовского
    00:58:43.937 : ru:В тоннеле
    01:03:28.388 : ru:"Пройдёмте!.."
    01:12:53.619 : ru:"Да здравствует свобода!.."
    01:17:53.460 : ru:Рая
    01:26:02.991 : ru:"За всё хорошее!.."
    01:30:50.028 : ru:"10-й наш десантный батальон..."
    01:34:53.396 : ru:Финал
    Скачать .torrent

    Скачать торрент-файл бесплатно и на максимальной скорости!

    Как скачивать? · Что такое торрент? · Рейтинг и ограничения

    !ВНИМАНИЕ!
    Сайт не распространяет и не хранит электронные версии произведений, а занимается лишь лишь предоставлением доступа к создаваемому пользователями каталогу ссылок на торрент-файлы, которые содержат только списки хеш-сумм, убедительная просьба с жалобами обращаться напрямую к пользователю. Файлы для обмена на трекере предоставлены пользователями сайта, и администрация не несёт ответственности за их содержание. Просьба не заливать файлы, защищенные авторскими правами, а также файлы нелегального содержания!


    _________________
    [Профиль] [ЛС]
    Показать сообщения:    
    Ответить на тему

    Текущее время: Сегодня, в 15:00

    Часовой пояс: GMT + 2



    Вы не можете начинать темы
    Вы не можете отвечать на сообщения
    Вы не можете редактировать свои сообщения
    Вы не можете удалять свои сообщения
    Вы не можете голосовать в опросах
    Вы не можете прикреплять файлы к сообщениям
    Вы не можете скачивать файлы