BitTorrentTracker PerecTracker.org
BitTorrentTracker PerecTracker.org
    
Регистрация  ·  Вход
 
 · 
Забыли пароль?

  • Принцесса Лебедь 3: Тайна заколдованного королевства / The Swan Princess: The Mystery of the Enchanted Treasure (Ричард Рич / Richard Rich) [1998, мультфильм, фэнтези, детектив, семейный, WEB-DLRip] Dub (ВидеоСервис)

    Ответить на тему
     
    Автор Сообщение

    rechyn

    Создавать темы 25-Июн-2015 05:54

           

    [Цитировать]

    Принцесса Лебедь 3: Тайна заколдованного королевства
    The Swan Princess: The Mystery of the Enchanted Treasure
    Страна: США
    Жанр: мультфильм, фэнтези, детектив, семейный
    Продолжительность: 01:12:50
    Год выпуска: 1998-Перевод: Профессиональный (дублированный) ВидеоСервис
    Русские субтитры: нет
    Режиссёр: Ричард Рич / Richard Rich-Роли озвучивали: Мишель Никастро, Брайан Ниссен, Катя Зох, Джозеф Медрано, Кристи Лэндерс, Дональд Сэйдж Маккэй, Даг Стоун, Стив Винович, Пол Масоснсон, Оуэн Миллер-Описание: Жители королевства с нетерпением ждут ежегодного праздника, на котором каждый может попытать счастья в различных конкурсах, состязаниях и выиграть первый приз. Принц Дерек и принцесса Одетт заканчивают последние приготовления к грандиозному торжеству.
    Но среди гостей не все настроены веселиться. Коварная Зельда приехала на праздник, чтобы завладеть тайной формулой запретного колдовства, спрятанной в недрах Замка. Для этого она похищает Одетт, и принц Дерек со своими давними друзьями снова отправляется в опасное и увлекательное путешествие…-Релиз:
    | | -• Спасибо Dreven за WEB-DL 1080p исходник.-Качество: WEB-DLRip
    Формат: AVI
    Видео: 672x384 (1.75:1), 23,976 fps, XviD 65 ~1 296 kbps avg, 0.21 bit/pixel
    Аудио: 48.0 kHz, MPEG Layer 3, 2/0 (L,R) ch, ~128 kbps
    Субтитры: отвутствуют

    MI


    Общее
    Полное имя : E:\incarcare\rip gata\The.Swan.Princess.III.1998.WEB-DLRip.avi
    Формат : AVI
    Формат/Информация : Audio Video Interleave
    Размер файла : 747 Мбайт
    Продолжительность : 1 ч. 12 м.
    Общий поток : 1433 Кбит/сек
    Программа кодирования : VirtualDubMod 1.5.10.2 (build 2540/release)
    Библиотека кодирования : VirtualDubMod build 2540/release
    Видео
    Идентификатор : 0
    Формат : MPEG-4 Visual
    Профиль формата : Advanced Simple@L5
    Параметр BVOP формата : 1
    Параметр QPel формата : Нет
    Параметр GMC формата : Без точки перехода
    Параметр матрицы формата : Выборочная
    Идентификатор кодека : XVID
    Идентификатор кодека/Подсказка : XviD
    Продолжительность : 1 ч. 12 м.
    Битрейт : 1296 Кбит/сек
    Ширина : 672 пикселя
    Высота : 384 пикселя
    Соотношение сторон : 16:9
    Частота кадров : 23,976 кадра/сек
    Цветовое пространство : YUV
    Субдискретизация насыщенности : 4:2:0
    Битовая глубина : 8 бит
    Тип развёртки : Прогрессивная
    Метод сжатия : С потерями
    Бит/(Пиксели*Кадры) : 0.209
    Размер потока : 675 Мбайт (90%)
    Библиотека кодирования : XviD 65
    Аудио
    Идентификатор : 1
    Формат : MPEG Audio
    Версия формата : Version 1
    Профиль формата : Layer 3
    Идентификатор кодека : 55
    Идентификатор кодека/Подсказка : MP3
    Продолжительность : 1 ч. 12 м.
    Вид битрейта : Постоянный
    Битрейт : 128 Кбит/сек
    Каналы : 2 канала
    Частота : 48,0 КГц
    Метод сжатия : С потерями
    Размер потока : 66,7 Мбайт (9%)
    Выравнивание : Соединение по промежуткам
    Продолжительность промежутка : 42 мс. (1,00 видеокадр)
    Время предзагрузки промежутка : 504 мс.

    Скриншоты

    Скачать .torrent

    Скачать торрент-файл бесплатно и на максимальной скорости!

    Как скачивать? · Что такое торрент? · Рейтинг и ограничения

    !ВНИМАНИЕ!
    Сайт не распространяет и не хранит электронные версии произведений, а занимается лишь лишь предоставлением доступа к создаваемому пользователями каталогу ссылок на торрент-файлы, которые содержат только списки хеш-сумм, убедительная просьба с жалобами обращаться напрямую к пользователю. Файлы для обмена на трекере предоставлены пользователями сайта, и администрация не несёт ответственности за их содержание. Просьба не заливать файлы, защищенные авторскими правами, а также файлы нелегального содержания!


    _________________
    [Профиль] [ЛС]
    Показать сообщения:    
    Ответить на тему

    Текущее время: Сегодня, в 02:03

    Часовой пояс: GMT + 2



    Вы не можете начинать темы
    Вы не можете отвечать на сообщения
    Вы не можете редактировать свои сообщения
    Вы не можете удалять свои сообщения
    Вы не можете голосовать в опросах
    Вы не можете прикреплять файлы к сообщениям
    Вы не можете скачивать файлы