BitTorrentTracker PerecTracker.org
BitTorrentTracker PerecTracker.org
    
Регистрация  ·  Вход
 
 · 
Забыли пароль?

  • Они сражались за Родину (Сергей Бондарчук) [1975, Драма, военный, история, BDRip] [Полная версия / UnCut]

    Ответить на тему
     
    Автор Сообщение

    Light

    Создавать темы 24-Июн-2015 21:30

           

    [Цитировать]

    Они сражались за Родину-Год выпуска: 1975
    Выпущено: СССР / Мосфильм
    Жанр: драма, военный, история
    Продолжительность: 02:37:25-Режиссёр:
    Сергей Бондарчук-В ролях:
    Василий Шукшин (Петр Лопахин), Вячеслав Тихонов (Николай Стрельцов), Сергей Бондарчук (Иван Звягинцев), Георгий Бурков (Александр Копытовский), Юрий Никулин (рядовой Некрасов), Иван Лапиков (старшина Поприщенко), Николай Губенко (лейтенант Голощеков), Андрей Ростоцкий (ефрейтор Кочетыгов), Николай Волков (рядовой Никифоров), Николай Шутько (повар Петро Лисиченко), Евгений Самойлов (Марченко), Нонна Мордюкова (Наталья Степановна), Лидия Федосеева-Шукшина (Глаша), Иннокентий Смоктуновский (врач-хирург)-Описание:
    Июль 1942 года. На подступах к Сталинграду обескровленные, измотанные советские войска ведут тяжелые оборонительные бои, неся огромные потери… Фильм рассказывает о подвиге рядовых солдат, любви к родной земле, об истинной цене победы…-Релиз групп
    | | КиноПоиск | Сэмпл |-Качество: BDRip [BDRemux | 1080p | Кинозал]
    Формат: AVI
    Видео: 688x496 (1.39:1), 23.976 fps, XviD build 73 ~1187 kbps avg, 0.14 bit/pixel
    Аудио: 48 kHz, MPEG Layer 3, 2 ch, ~128.00 kbps avg-*Полная реставрация изображения и звука. Исходные киноматериалы подготовлены Госфильмофондом России. Покадровая цифровая реставрация изображения, ремастеринг звука и авторинг проведены объединением «Крупный план».-

    Скриншоты

    MediaInfo

    General
    Complete name                            : D:\Oni_srazhalis`_za_Rodinu_1975_BDRip_by_Dalemake.avi
    Format                                   : AVI
    Format/Info                              : Audio Video Interleave
    File size                                : 1.46 GiB
    Duration                                 : 2h 37mn
    Overall bit rate                         : 1 325 Kbps
    Writing application                      : VirtualDubMod 1.5.10.3 | www.virtualdub-fr.org || (build 2550/release)
    Writing library                          : VirtualDubMod build 2550/release
    Video
    ID                                       : 0
    Format                                   : MPEG-4 Visual
    Format profile                           : Advanced Simple@L5
    Format settings, BVOP                    : 1
    Format settings, QPel                    : No
    Format settings, GMC                     : No warppoints
    Format settings, Matrix                  : Custom
    Codec ID                                 : XVID
    Codec ID/Hint                            : XviD
    Duration                                 : 2h 37mn
    Bit rate                                 : 1 188 Kbps
    Width                                    : 688 pixels
    Height                                   : 496 pixels
    Display aspect ratio                     : 1.387
    Frame rate                               : 23.976 fps
    Color space                              : YUV
    Chroma subsampling                       : 4:2:0
    Bit depth                                : 8 bits
    Scan type                                : Progressive
    Compression mode                         : Lossy
    Bits/(Pixel*Frame)                       : 0.145
    Stream size                              : 1.31 GiB (90%)
    Writing library                          : XviD 73
    Audio
    ID                                       : 1
    Format                                   : MPEG Audio
    Format version                           : Version 1
    Format profile                           : Layer 3
    Codec ID                                 : 55
    Codec ID/Hint                            : MP3
    Duration                                 : 2h 37mn
    Bit rate mode                            : Constant
    Bit rate                                 : 128 Kbps
    Channel(s)                               : 2 channels
    Sampling rate                            : 48.0 KHz
    Compression mode                         : Lossy
    Stream size                              : 144 MiB (10%)
    Alignment                                : Aligned on interleaves
    Interleave, duration                     : 42 ms (1.00 video frame)
    Interleave, preload duration             : 504 ms
    Writing library                          : LAME3.99r
    Encoding settings                        : -m s -V 4 -q 2 -lowpass 17 -b 128
    -
    Скачать .torrent

    Скачать торрент-файл бесплатно и на максимальной скорости!

    Как скачивать? · Что такое торрент? · Рейтинг и ограничения

    !ВНИМАНИЕ!
    Сайт не распространяет и не хранит электронные версии произведений, а занимается лишь лишь предоставлением доступа к создаваемому пользователями каталогу ссылок на торрент-файлы, которые содержат только списки хеш-сумм, убедительная просьба с жалобами обращаться напрямую к пользователю. Файлы для обмена на трекере предоставлены пользователями сайта, и администрация не несёт ответственности за их содержание. Просьба не заливать файлы, защищенные авторскими правами, а также файлы нелегального содержания!


    _________________
    [Профиль] [ЛС]
    Показать сообщения:    
    Ответить на тему

    Текущее время: Сегодня, в 02:29

    Часовой пояс: GMT + 2



    Вы не можете начинать темы
    Вы не можете отвечать на сообщения
    Вы не можете редактировать свои сообщения
    Вы не можете удалять свои сообщения
    Вы не можете голосовать в опросах
    Вы не можете прикреплять файлы к сообщениям
    Вы не можете скачивать файлы