BitTorrentTracker PerecTracker.org
BitTorrentTracker PerecTracker.org
    
Регистрация  ·  Вход
 
 · 
Забыли пароль?

  • Большая игра / Big Game (Ялмари Хеландер / Jalmari Helander) [2014, Финляндия, Великобритания, Германия, боевик, приключения, WEB-DLRip] DVO

    Ответить на тему
     
    Автор Сообщение

    Light

    Создавать темы 24-Июн-2015 21:30

           

    [Цитировать]

    Большая игра / Big Game
    Страна: Финляндия, Великобритания, Германия
    Жанр: боевик, приключения.
    Год выпуска: 2014
    Продолжительность: 01:31:01
    Перевод: Любительский (двухголосый закадровый) RAIM&NASTR
    Cубтитры: нет
    Оригинальная аудиодорожка: нет
    Премьера (РФ): 2015, «Люксор»
    Режиссер: Ялмари Хеландер / Jalmari Helander
    В ролях: Сэмюэл Л. Джексон, Онни Томмила, Рэй Стивенсон, Виктор Гарбер, Мехмет Куртулус, Тед Левайн, Йорма Томмила, Ристо Сэлми, Фелисити Хаффман, Джим Бродбент
    Описание: История робкого подростка по имени Оскари. Как и его прадеды, согласно традициям, мальчик должен провести один день и одну ночь в непроходимой глуши. Вооружённый только луком и стрелами, он должен вернуться с добычей, которая ознаменует его становление как мужчины. Кто бы мог подумать, что такой добычей станет президент США! Вот так судьба одного из самых влиятельных людей во всем мире оказывается в руках подростка. Вовлеченные в смертельно опасную, но от этого не менее смешную игру в «кошки-мышки», имея всего несколько часов форы — Оскари и Президент США должны сплотиться, чтобы пережить самую необычную ночь в своей жизни.
    Доп. информация: 5.5
    5.7
    Сэмпл:http://rusfolder.com/43854974
    Качество видео: WEB-DLRip
    Формат видео: AVI
    Видео: XviD, 1 996 Kbps , 720x304, 23.976 fps
    Аудио: AC3, 2 ch, 256 Kbps , 48.0 KHz

    MediaInfo

    General
    Complete name : E:\Big.Game.2014.L2.WEBRip_.avi
    Format : AVI
    Format/Info : Audio Video Interleave
    File size : 1.37 GiB
    Duration : 1h 26mn
    Overall bit rate : 2 261 Kbps
    Writing application : VirtualDubMod 1.5.10.3 | www.virtualdub-fr.org || (build 2550/release)
    Writing library : VirtualDubMod build 2550/release
    Video
    ID : 0
    Format : MPEG-4 Visual
    Format profile : Advanced Simple@L5
    Format settings, BVOP : 2
    Format settings, QPel : No
    Format settings, GMC : No warppoints
    Format settings, Matrix : Default (MPEG)
    Muxing mode : Packed bitstream
    Codec ID : XVID
    Codec ID/Hint : XviD
    Duration : 1h 26mn
    Bit rate : 1 996 Kbps
    Width : 720 pixels
    Height : 304 pixels
    Display aspect ratio : 2.35:1
    Frame rate : 23.976 fps
    Color space : YUV
    Chroma subsampling : 4:2:0
    Bit depth : 8 bits
    Scan type : Progressive
    Compression mode : Lossy
    Bits/(Pixel*Frame) : 0.380
    Stream size : 1.21 GiB (88%)
    Writing library : XviD 73
    Audio
    ID : 1
    Format : AC-3
    Format/Info : Audio Coding 3
    Mode extension : CM (complete main)
    Format settings, Endianness : Big
    Codec ID : 2000
    Duration : 1h 26mn
    Bit rate mode : Constant
    Bit rate : 256 Kbps
    Channel(s) : 2 channels
    Channel positions : Front: L R
    Sampling rate : 48.0 KHz
    Compression mode : Lossy
    Stream size : 159 MiB (11%)
    Alignment : Split accross interleaves
    Interleave, duration : 42 ms (1.00 video frame)
    Interleave, preload duration : 500 ms

    Скриншот c названием фильма

    Скриншоты














    Скачать .torrent

    Скачать торрент-файл бесплатно и на максимальной скорости!

    Как скачивать? · Что такое торрент? · Рейтинг и ограничения

    !ВНИМАНИЕ!
    Сайт не распространяет и не хранит электронные версии произведений, а занимается лишь лишь предоставлением доступа к создаваемому пользователями каталогу ссылок на торрент-файлы, которые содержат только списки хеш-сумм, убедительная просьба с жалобами обращаться напрямую к пользователю. Файлы для обмена на трекере предоставлены пользователями сайта, и администрация не несёт ответственности за их содержание. Просьба не заливать файлы, защищенные авторскими правами, а также файлы нелегального содержания!


    _________________
    [Профиль] [ЛС]
    Показать сообщения:    
    Ответить на тему

    Текущее время: Сегодня, в 12:50

    Часовой пояс: GMT + 2



    Вы не можете начинать темы
    Вы не можете отвечать на сообщения
    Вы не можете редактировать свои сообщения
    Вы не можете удалять свои сообщения
    Вы не можете голосовать в опросах
    Вы не можете прикреплять файлы к сообщениям
    Вы не можете скачивать файлы