BitTorrentTracker PerecTracker.org
BitTorrentTracker PerecTracker.org
    
Регистрация  ·  Вход
 
 · 
Забыли пароль?

  • Роса (Анатолий Ниточкин) [1975 г., киноповесть, детский, SATRip]

    Ответить на тему
     
    Автор Сообщение

    Light

    Создавать темы 24-Июн-2015 04:42

           

    [Цитировать]

    РосаГод выпуска: 1975.
    Жанр: киноповесть, детский.
    Продолжительность: 01:23:13.
    Режиссер: Анатолий Ниточкин.
    В ролях:
    Валера Богомолов, Татьяна Назарова, Саша Галанский, Борис Чирков, Любовь Соколова, Виктор Косых, Лариса Лужина, Дмитрий Орловский, Клементина Ростовцева, Юрий Назаров, Майя Булгакова, Степан Крылов, Александр Харитонов.
    Описание:
    О деревенских школьниках-следопытах, занявшихся восстановлением памяти о героическом прошлом своих односельчан в годы Великой Отечественной войны.
    Доп. информация:
    Страна: СССР .
    Киностудия: Творческое объединение "Экран".
    Премьера: 1 мая 1975 года (ТВ).
    Автор сценария: Алексей Коркищенко.
    Оператор: Александр Воропаев.
    Композитор: Георгий Фиртич.
    Художник: Виктор Лукьянов.

    Релиз

    Качество: SATRip
    Формат: AVI
    Видео: 720x528 (1.36:1), 25 fps, XviD build 73 ~2338 kbps avg, 0.25 bit/pixel
    Аудио: 48 kHz, AC3 Dolby Digital, 2/0 (L,R) ch, ~192 kbps

    Отчет MI

    General
    Complete name : Rosa.1975.XviD.SATRip.fenixclub_1,47.avi
    Format : AVI
    Format/Info : Audio Video Interleave
    File size : 1.48 GiB
    Duration : 1h 23mn
    Overall bit rate : 2 541 Kbps
    Writing application : VirtualDubMod 1.5.10.3 | www.virtualdub-fr.org || (build 2550/release)
    Writing library : VirtualDubMod build 2550/release
    Video
    ID : 0
    Format : MPEG-4 Visual
    Format profile : Advanced Simple@L5
    Format settings, BVOP : 2
    Format settings, QPel : No
    Format settings, GMC : No warppoints
    Format settings, Matrix : Custom
    Codec ID : XVID
    Codec ID/Hint : XviD
    Duration : 1h 23mn
    Bit rate : 2 339 Kbps
    Width : 720 pixels
    Height : 528 pixels
    Display aspect ratio : 4:3
    Frame rate : 25.000 fps
    Color space : YUV
    Chroma subsampling : 4:2:0
    Bit depth : 8 bits
    Scan type : Progressive
    Compression mode : Lossy
    Bits/(Pixel*Frame) : 0.246
    Stream size : 1.36 GiB (92%)
    Writing library : XviD 73
    Audio
    ID : 1
    Format : AC-3
    Format/Info : Audio Coding 3
    Mode extension : CM (complete main)
    Format settings, Endianness : Big
    Codec ID : 2000
    Duration : 1h 23mn
    Bit rate mode : Constant
    Bit rate : 192 Kbps
    Channel(s) : 2 channels
    Channel positions : Front: L R
    Sampling rate : 48.0 KHz
    Compression mode : Lossy
    Stream size : 114 MiB (8%)
    Alignment : Split accross interleaves
    Interleave, duration : 40 ms (1.00 video frame)
    Interleave, preload duratio : 500 ms.
    Скриншоты

    Альтернативный хост


    Скачать .torrent

    Скачать торрент-файл бесплатно и на максимальной скорости!

    Как скачивать? · Что такое торрент? · Рейтинг и ограничения

    !ВНИМАНИЕ!
    Сайт не распространяет и не хранит электронные версии произведений, а занимается лишь лишь предоставлением доступа к создаваемому пользователями каталогу ссылок на торрент-файлы, которые содержат только списки хеш-сумм, убедительная просьба с жалобами обращаться напрямую к пользователю. Файлы для обмена на трекере предоставлены пользователями сайта, и администрация не несёт ответственности за их содержание. Просьба не заливать файлы, защищенные авторскими правами, а также файлы нелегального содержания!


    _________________
    [Профиль] [ЛС]

    -746

    Создавать темы 24-Янв-2016 22:26 (спустя 7 месяцев)

           

    Топик был перенесен из форума Кино СССР в форум Детские отечественные фильмы


    -sasha2006

    _________________
    Как бы ты высоко не летал, не забывай, с кем ты ползал..
     
    Показать сообщения:    
    Ответить на тему

    Текущее время: Сегодня, в 18:38

    Часовой пояс: GMT + 2



    Вы не можете начинать темы
    Вы не можете отвечать на сообщения
    Вы не можете редактировать свои сообщения
    Вы не можете удалять свои сообщения
    Вы не можете голосовать в опросах
    Вы не можете прикреплять файлы к сообщениям
    Вы не можете скачивать файлы