BitTorrentTracker PerecTracker.org
BitTorrentTracker PerecTracker.org
    
Регистрация  ·  Вход
 
 · 
Забыли пароль?

  • Идеальное убийство (Андрей Хрулев) [2013, детектив, HDTVRip]

    Ответить на тему
     
    Автор Сообщение

    rechyn

    Создавать темы 23-Июн-2015 16:06

           

    [Цитировать]

    Идеальное убийство
    Жанр: детектив
    Год выпуска: 2013
    Продолжительность: 01:26:01
    Режиссёр: Андрей Хрулев
    В ролях: Валерий Николаев, Светлана Иванова, Антонина Дивина, Антон Яковлев (III), Алексей Лонгин, Александр Горелов (II)
    Описание: Ольга хотела быть счастливой. И у ее счастья есть совершенно четкие определения: успешный муж, полный достаток в доме, дорогая одежда, возможность путешествовать и ни от кого не зависеть. В ее детском доме все было по-другому и его воспитанникам оставалось только мечтать. Каждый о своем, а ей уже давно удалось вывести свою формулу счастья. Она стремилась к нему, и она его получила... Известный адвокат Сергей Арзамасов берется за бракоразводное дело Ольги Лавровой, которая ежедневно подвергается насилию со стороны своего супруга Игоря и которую тот жестоко избивает. И первый раз в жизни он идет вопреки сложившимся этическим и профессиональным принципам, бросается в водоворот своих желаний. Она ведь так интересна, так многогранна и беззащитна. Их бурный роман вспыхивает как пламя, которое уже не загасить. Однажды любовников застает муж Ольги, и между ним и Сергеем завязывается драка. Пытаясь защитить Арзамасова, Ольга убивает мужа. Теперь Сергею предстоит защищать Ольгу в суде.

    Качество видео: HDTVRip (Исх. HDTVRip 720p)
    Формат видео: AVI
    Видео: 656x368 (1.78:1), 25 fps, XviD build 73 ~1072 kbps avg, 0.18 bit/pixel
    Аудио: 48 kHz, MPEG Layer 3, 2 ch, ~128.00 kbps avg

    MediaInfo

    Общее
    Полное имя : S:\Идеальное убийство. 2013. HDTVRip (AleksSin).avi
    Формат : AVI
    Формат/Информация : Audio Video Interleave
    Размер файла : 744 Мбайт
    Продолжительность : 1 ч. 26 м.
    Общий поток : 1209 Кбит/сек
    Программа кодирования : VirtualDubMod 1.5.10.3 | www.virtualdub-fr.org || (build 2550/release)
    Библиотека кодирования : VirtualDubMod build 2550/release
    Видео
    Идентификатор : 0
    Формат : MPEG-4 Visual
    Профиль формата : Advanced Simple@L5
    Параметр BVOP формата : 1
    Параметр QPel формата : Нет
    Параметр GMC формата : Без точки перехода
    Параметр матрицы формата : Выборочная
    Идентификатор кодека : XVID
    Идентификатор кодека/Подсказка : XviD
    Продолжительность : 1 ч. 26 м.
    Битрейт : 1072 Кбит/сек
    Ширина : 656 пикселей
    Высота : 368 пикселей
    Соотношение сторон : 16:9
    Частота кадров : 25,000 кадров/сек
    Цветовое пространство : YUV
    Субдискретизация насыщенности : 4:2:0
    Битовая глубина : 8 бит
    Тип развёртки : Прогрессивная
    Метод сжатия : С потерями
    Бит/(Пиксели*Кадры) : 0.178
    Размер потока : 659 Мбайт (89%)
    Библиотека кодирования : XviD 73
    Аудио
    Идентификатор : 1
    Формат : MPEG Audio
    Версия формата : Version 1
    Профиль формата : Layer 3
    Идентификатор кодека : 55
    Идентификатор кодека/Подсказка : MP3
    Продолжительность : 1 ч. 26 м.
    Вид битрейта : Постоянный
    Битрейт : 128 Кбит/сек
    Каналы : 2 канала
    Частота : 48,0 КГц
    Метод сжатия : С потерями
    Размер потока : 78,8 Мбайт (11%)
    Выравнивание : Соединение по промежуткам
    Продолжительность промежутка : 40 мс. (1,00 видеокадр)
    Время предзагрузки промежутка : 504 мс.
    Библиотека кодирования : LAME3.99r
    Настройки программы : -m s -V 4 -q 2 -lowpass 17 -b 128

    Скриншот c названием фильма

    Скриншоты

    Скачать .torrent

    Скачать торрент-файл бесплатно и на максимальной скорости!

    Как скачивать? · Что такое торрент? · Рейтинг и ограничения

    !ВНИМАНИЕ!
    Сайт не распространяет и не хранит электронные версии произведений, а занимается лишь лишь предоставлением доступа к создаваемому пользователями каталогу ссылок на торрент-файлы, которые содержат только списки хеш-сумм, убедительная просьба с жалобами обращаться напрямую к пользователю. Файлы для обмена на трекере предоставлены пользователями сайта, и администрация не несёт ответственности за их содержание. Просьба не заливать файлы, защищенные авторскими правами, а также файлы нелегального содержания!


    _________________
    [Профиль] [ЛС]
    Показать сообщения:    
    Ответить на тему

    Текущее время: Сегодня, в 10:09

    Часовой пояс: GMT + 2



    Вы не можете начинать темы
    Вы не можете отвечать на сообщения
    Вы не можете редактировать свои сообщения
    Вы не можете удалять свои сообщения
    Вы не можете голосовать в опросах
    Вы не можете прикреплять файлы к сообщениям
    Вы не можете скачивать файлы