BitTorrentTracker PerecTracker.org
BitTorrentTracker PerecTracker.org
    
Регистрация  ·  Вход
 
 · 
Забыли пароль?

  • Элиас и морское сокровище / Elias og jakten pa havets gull (Лисе Осволл / Lise I. Osvoll) [2010, полнометражный мультфильм, SATRip] MVO (ВГТРК)

    Ответить на тему
     
    Автор Сообщение

    rechyn

    Создавать темы 23-Июн-2015 16:06

           

    [Цитировать]

    Элиас и морское сокровище
    Elias og jakten pa havets gull
    Страна: Норвегия
    Жанр: полнометражный мультфильм
    Продолжительность: 01:11:37
    Год выпуска: 2010-Перевод: Профессиональный (Многоголосый закадровый) ~ ВГТРК
    Русские субтитры: нет
    Режиссёр: Лисе Осволл / Lise I. Osvoll-Описание: Маленький спасательный катер Элиас и его друзья, команда Уютной бухты, готовятся к началу зимнего сезона ежегодной рыбной ловли. Но в этот раз большой улов им не светит. Оказывается, огромные промышленные траулеры выловили всю рыбу в океане, и для обычных маленьких рыбацких лодочек настали тяжелые времена. Элиас хочет помочь своим друзьям.-Релиз:
    | | -• Спасибо xfiles за DVB исходник.-Качество: SATRip
    Формат: AVI
    Видео: 704x416 (1.69:1), 25,000 fps, XviD 65 ~1 319 kbps avg, 0.18 bit/pixel
    Аудио: 48.0 kHz, MPEG Layer 3, 2/0 (L,R) ch, ~128 kbps
    Субтитры: отсутствуют

    MI


    Общее
    Полное имя : E:\incarcare\rip gata\Elias.og.jakten.pa.havets.gull.2010.DVBRip.avi
    Формат : AVI
    Формат/Информация : Audio Video Interleave
    Размер файла : 746 Мбайт
    Продолжительность : 1 ч. 11 м.
    Общий поток : 1457 Кбит/сек
    Программа кодирования : VirtualDubMod 1.5.10.2 (build 2540/release)
    Библиотека кодирования : VirtualDubMod build 2540/release
    Видео
    Идентификатор : 0
    Формат : MPEG-4 Visual
    Профиль формата : Advanced Simple@L5
    Параметр BVOP формата : 1
    Параметр QPel формата : Нет
    Параметр GMC формата : Без точки перехода
    Параметр матрицы формата : Выборочная
    Идентификатор кодека : XVID
    Идентификатор кодека/Подсказка : XviD
    Продолжительность : 1 ч. 11 м.
    Битрейт : 1319 Кбит/сек
    Ширина : 704 пикселя
    Высота : 416 пикселей
    Соотношение сторон : 5:3
    Частота кадров : 25,000 кадров/сек
    Цветовое пространство : YUV
    Субдискретизация насыщенности : 4:2:0
    Битовая глубина : 8 бит
    Тип развёртки : Прогрессивная
    Метод сжатия : С потерями
    Бит/(Пиксели*Кадры) : 0.180
    Размер потока : 676 Мбайт (91%)
    Библиотека кодирования : XviD 65
    Аудио
    Идентификатор : 1
    Формат : MPEG Audio
    Версия формата : Version 1
    Профиль формата : Layer 3
    Идентификатор кодека : 55
    Идентификатор кодека/Подсказка : MP3
    Продолжительность : 1 ч. 11 м.
    Вид битрейта : Постоянный
    Битрейт : 128 Кбит/сек
    Каналы : 2 канала
    Частота : 48,0 КГц
    Метод сжатия : С потерями
    Размер потока : 65,6 Мбайт (9%)
    Выравнивание : Соединение по промежуткам
    Продолжительность промежутка : 40 мс. (1,00 видеокадр)
    Время предзагрузки промежутка : 504 мс.

    Скриншоты

    Скачать .torrent

    Скачать торрент-файл бесплатно и на максимальной скорости!

    Как скачивать? · Что такое торрент? · Рейтинг и ограничения

    !ВНИМАНИЕ!
    Сайт не распространяет и не хранит электронные версии произведений, а занимается лишь лишь предоставлением доступа к создаваемому пользователями каталогу ссылок на торрент-файлы, которые содержат только списки хеш-сумм, убедительная просьба с жалобами обращаться напрямую к пользователю. Файлы для обмена на трекере предоставлены пользователями сайта, и администрация не несёт ответственности за их содержание. Просьба не заливать файлы, защищенные авторскими правами, а также файлы нелегального содержания!


    _________________
    [Профиль] [ЛС]
    Показать сообщения:    
    Ответить на тему

    Текущее время: Сегодня, в 10:47

    Часовой пояс: GMT + 2



    Вы не можете начинать темы
    Вы не можете отвечать на сообщения
    Вы не можете редактировать свои сообщения
    Вы не можете удалять свои сообщения
    Вы не можете голосовать в опросах
    Вы не можете прикреплять файлы к сообщениям
    Вы не можете скачивать файлы