Register  ·  Log in
Forgot password?

  • Тинтин: Храм Солнца / Tintin et le temple du soleil / Seven Crystal Balls and the Prisoners of the Sun (Эдди Латесте / Eddie Lateste) [1969, мультфильм, детектив, приключения, семейный, SATRip] DUB

    Reply to topic
    Author Message


    Post 23-Jun-2015 17:06



    Тинтин и храм Солнца
    Tintin et le temple du soleil
    Страна: Франция, Бельгия, Швейцария
    Жанр: мультфильм, детектив, приключения, семейный
    Продолжительность: 01:17:38
    Год выпуска: 1969-Перевод: Профессиональный (дублированный)
    Русские субтитры: нет
    Режиссёр: Эдди Латесте / Eddie Lateste-Описание: Профессор Турнесоль надел браслет с руки мумии и был похищен потомками инков, которые увезли его в Перу. Тинтин и его друзья отправляются на поиски профессора в приключения, которые приведут их к сердцу Перу - в Храм Солнца...-Релиз:
    | | -• Спасибо xfiles за DVB исходник.-Качество: SATRip
    Формат: AVI
    Видео: 720x400 (1.80:1), 25,000 fps, XviD 65 ~1 206 kbps avg, 0.17 bit/pixel
    Аудио: 48.0 kHz, MPEG Layer 3, 2/0 (L,R) ch, ~128 kbps
    Субтитры: отсутствуют


    Полное имя : E:\incarcare\rip gata\
    Формат : AVI
    Формат/Информация : Audio Video Interleave
    Размер файла : 746 Мбайт
    Продолжительность : 1 ч. 17 м.
    Общий поток : 1344 Кбит/сек
    Программа кодирования : VirtualDubMod (build 2540/release)
    Библиотека кодирования : VirtualDubMod build 2540/release
    Идентификатор : 0
    Формат : MPEG-4 Visual
    Профиль формата : Advanced Simple@L5
    Параметр BVOP формата : 1
    Параметр QPel формата : Нет
    Параметр GMC формата : Без точки перехода
    Параметр матрицы формата : Выборочная
    Идентификатор кодека : XVID
    Идентификатор кодека/Подсказка : XviD
    Продолжительность : 1 ч. 17 м.
    Битрейт : 1206 Кбит/сек
    Ширина : 720 пикселей
    Высота : 400 пикселей
    Соотношение сторон : 16:9
    Частота кадров : 25,000 кадров/сек
    Цветовое пространство : YUV
    Субдискретизация насыщенности : 4:2:0
    Битовая глубина : 8 бит
    Тип развёртки : Прогрессивная
    Метод сжатия : С потерями
    Бит/(Пиксели*Кадры) : 0.168
    Размер потока : 670 Мбайт (90%)
    Библиотека кодирования : XviD 65
    Идентификатор : 1
    Формат : MPEG Audio
    Версия формата : Version 1
    Профиль формата : Layer 3
    Идентификатор кодека : 55
    Идентификатор кодека/Подсказка : MP3
    Продолжительность : 1 ч. 17 м.
    Вид битрейта : Постоянный
    Битрейт : 128 Кбит/сек
    Каналы : 2 канала
    Частота : 48,0 КГц
    Метод сжатия : С потерями
    Размер потока : 71,1 Мбайт (10%)
    Выравнивание : Соединение по промежуткам
    Продолжительность промежутка : 40 мс. (1,00 видеокадр)
    Время предзагрузки промежутка : 504 мс.


    Download .torrent

    Download free and at maximum speed!

    How to Download? · What is a torrent? · Ratings and Limitations

    The site does not extend and does not store electronic(digital) versions of products, and only gives access to a reference catalogue created by users on torrent-files which contain only lists of the hash-sums, the earnest entreaty, with complaints(abuse) to access directly to the user. Files for an exchange on tracker are given by users of a site, and the administration does not bear the responsibility for their maintenance. The request to not fill in the files protected by copyrights, and also files of the illegal maintenance!

    [Profile] [PM]
    Display posts from previous:    
    Reply to topic

    The time now is: Today 20:30

    All times are GMT + 3 Hours

    You cannot post new topics in this forum
    You cannot reply to topics in this forum
    You cannot edit your posts in this forum
    You cannot delete your posts in this forum
    You cannot vote in polls in this forum
    You cannot attach files in this forum
    You cannot download files in this forum