BitTorrentTracker PerecTracker.org
BitTorrentTracker PerecTracker.org
    
Регистрация  ·  Вход
 
 · 
Забыли пароль?

  • Слишком крут для неудачи / Too Big to Fail (Кёртис Хэнсон / Curtis Hanson) [2011, США, драма, HDRip] MVO (Amedia Premium HD) + Original Eng

    Ответить на тему
     
    Автор Сообщение

    Light

    Создавать темы 23-Июн-2015 11:54

           

    [Цитировать]

    Слишком крут для неудачи / Too Big to Fail
    Страна: США
    Студия: Deuce Three Productions, HBO Films, Home Box Office (HBO)
    Жанр: драма
    Год выпуска: 2011
    Продолжительность: 01:38:42
    Перевод: Профессиональный (многоголосый закадровый) Amedia Premium HD
    Cубтитры: нет
    Оригинальная аудиодорожка: английский
    Режиссер: Кёртис Хэнсон / Curtis Hanson
    В ролях: Джеймс Вудс, Джон Хёрд, Уильям Хёрт, Эрин Дилли, Эми Карлсон, Тофер Грейс, Авад Актар, Синтия Никсон, Кэти Бейкер, Эдвард Эснер
    Описание: Хроника событий, приведших к финансовому кризису 2008 года, с министром финансов США Генри Полсоном в центре сюжета.
    II Сэмпл II IMDB II
    Доп. информация:
    Звук записан с т/к Amedia Premium HD
    Качество видео: HDRip (Too.Big.to.Fail.2011.720p.BluRay.Rus.Eng.HDCLUB)
    Формат видео: AVI
    Видео: Xvid / 720x400 / 16:9 / 23.976fps / Bit rate 2351Kbps / b/p 0.340
    Аудио 1: AC3 / 48.0KHz / 2ch. / 192kbps / rus / mvo / Amedia Premium HD
    Аудио 2: AC3 / 48.0KHz / 6ch. / 448kbps / eng

    MediaInfo

    Общее
    Полное имя : D:\torrent\Too.Big.to.Fail.2011.HDRip_by_vedigo.avi
    Формат : AVI
    Формат/Информация : Audio Video Interleave
    Профиль формата : OpenDML
    Размер файла : 2,07 Гбайт
    Продолжительность : 1 ч. 38 м.
    Общий поток : 3009 Кбит/сек
    Программа кодирования : VirtualDubMod 1.5.10.3 (build 2550/release)
    Библиотека кодирования : VirtualDubMod build 2550/release
    Видео
    Идентификатор : 0
    Формат : MPEG-4 Visual
    Профиль формата : Advanced Simple@L5
    Параметр BVOP формата : 2
    Параметр QPel формата : Нет
    Параметр GMC формата : Без точки перехода
    Параметр матрицы формата : Default (H.263)
    Идентификатор кодека : XVID
    Идентификатор кодека/Подсказка : XviD
    Продолжительность : 1 ч. 38 м.
    Битрейт : 2351 Кбит/сек
    Ширина : 720 пикселей
    Высота : 400 пикселей
    Соотношение сторон : 16:9
    Частота кадров : 23,976 кадра/сек
    Цветовое пространство : YUV
    Субдискретизация насыщенности : 4:2:0
    Битовая глубина : 8 бит
    Тип развёртки : Прогрессивная
    Метод сжатия : С потерями
    Бит/(Пиксели*Кадры) : 0.340
    Размер потока : 1,62 Гбайт (78%)
    Библиотека кодирования : XviD 65
    Аудио #1
    Идентификатор : 1
    Формат : AC-3
    Формат/Информация : Audio Coding 3
    Расширение режима : CM (complete main)
    Параметр Endianness формата : Big
    Идентификатор кодека : 2000
    Продолжительность : 1 ч. 38 м.
    Вид битрейта : Постоянный
    Битрейт : 192 Кбит/сек
    Каналы : 2 канала
    Расположение каналов : Front: L R
    Частота : 48,0 КГц
    Метод сжатия : С потерями
    Размер потока : 136 Мбайт (6%)
    Выравнивание : Разделение по промежуткам
    Продолжительность промежутка : 42 мс. (1,00 видеокадр)
    Время предзагрузки промежутка : 500 мс.
    Аудио #2
    Идентификатор : 2
    Формат : AC-3
    Формат/Информация : Audio Coding 3
    Расширение режима : CM (complete main)
    Параметр Endianness формата : Big
    Идентификатор кодека : 2000
    Продолжительность : 1 ч. 38 м.
    Вид битрейта : Постоянный
    Битрейт : 448 Кбит/сек
    Каналы : 6 каналов
    Расположение каналов : Front: L C R, Side: L R, LFE
    Частота : 48,0 КГц
    Метод сжатия : С потерями
    Размер потока : 316 Мбайт (15%)
    Выравнивание : Разделение по промежуткам
    Продолжительность промежутка : 42 мс. (1,00 видеокадр)
    Время предзагрузки промежутка : 500 мс.

    Скриншот c названием фильма

    Скриншоты


    Скачать .torrent

    Скачать торрент-файл бесплатно и на максимальной скорости!

    Как скачивать? · Что такое торрент? · Рейтинг и ограничения

    !ВНИМАНИЕ!
    Сайт не распространяет и не хранит электронные версии произведений, а занимается лишь лишь предоставлением доступа к создаваемому пользователями каталогу ссылок на торрент-файлы, которые содержат только списки хеш-сумм, убедительная просьба с жалобами обращаться напрямую к пользователю. Файлы для обмена на трекере предоставлены пользователями сайта, и администрация не несёт ответственности за их содержание. Просьба не заливать файлы, защищенные авторскими правами, а также файлы нелегального содержания!


    _________________
    [Профиль] [ЛС]
    Показать сообщения:    
    Ответить на тему

    Текущее время: Сегодня, в 06:17

    Часовой пояс: GMT + 2



    Вы не можете начинать темы
    Вы не можете отвечать на сообщения
    Вы не можете редактировать свои сообщения
    Вы не можете удалять свои сообщения
    Вы не можете голосовать в опросах
    Вы не можете прикреплять файлы к сообщениям
    Вы не можете скачивать файлы