BitTorrentTracker PerecTracker.org
BitTorrentTracker PerecTracker.org
    
Регистрация  ·  Вход
 
 · 
Забыли пароль?

  • Зажги меня / Plush (Кэтрин Хардвик / Catherine Hardwicke) [2013, США, Триллер, драма, WEB-DLRip] VO

    Ответить на тему
     
    Автор Сообщение

    Light

    Создавать темы 22-Июн-2015 23:18

           

    [Цитировать]

    Зажги меня / Plush
    Страна: США
    Жанр: Триллер, драма
    Год выпуска: 2013
    Продолжительность: 01:39:21
    Перевод: Одноголосый закадровый
    Cубтитры: нет
    Режиссер: Кэтрин Хардвик / Catherine Hardwicke
    В ролях: Эмили Браунинг, Завьер Сэмюэл, Кэм Жиганде, Томас Деккер, Доун Оливери, Фрэнсис Фишер, Кеннеди Вейт, Кэйси ЛаБоу, Брэндон Джей МакЛарен, Джеймс Кайсон Ли
    Описание: После того, как брат Хейли, восходящей звезды рока, погиб от передозировки, ее жизнь пошла по наклонной. В результате ее второй альбом становится творческим и коммерческим провалом. Она находит вдохновение после того, как в группу пришел гитарист Энцо, который своим позитивом и свежими идеями вытащил девушку из состояния полузабытья. Но вскоре их сотрудничество выходит за грань профессиональных отношений и выливается в ночь страстной любви…
    Сэмпл
    Кинопоиск
    Качество видео: WEB-DLRip
    Формат видео: AVI
    Видео: 1710 Кбит/сек 720 x 400 (1.800) at 23.976 fps
    Аудио: AC-3 384 Кбит/сек 6 каналов, 48,0 КГц

    MediaInfo

    Формат : AVI
    Формат/Информация : Audio Video Interleave
    Размер файла : 1,46 Гбайт
    Продолжительность : 1 ч. 39 м.
    Общий поток : 2103 Кбит/сек
    Программа кодирования : VirtualDubMod 1.5.10.2 (build 2540/release)
    Библиотека кодирования : VirtualDubMod build 2540/release
    Видео
    Идентификатор : 0
    Формат : MPEG-4 Visual
    Профиль формата : Advanced Simple@L5
    Параметр BVOP формата : 2
    Параметр QPel формата : Нет
    Параметр GMC формата : Без точки перехода
    Параметр матрицы формата : Default (H.263)
    Идентификатор кодека : XVID
    Идентификатор кодека/Подсказка : XviD
    Продолжительность : 1 ч. 39 м.
    Битрейт : 1710 Кбит/сек
    Ширина : 720 пикселей
    Высота : 400 пикселей
    Соотношение сторон : 16:9
    Частота кадров : 23,976 кадра/сек
    Цветовое пространство : YUV
    Субдискретизация насыщенности : 4:2:0
    Битовая глубина : 8 бит
    Тип развёртки : Прогрессивная
    Метод сжатия : С потерями
    Бит/(Пиксели*Кадры) : 0.248
    Размер потока : 1,19 Гбайт (81%)
    Библиотека кодирования : XviD 1.2.1 (UTC 2008-12-04)
    Аудио
    Идентификатор : 1
    Формат : AC-3
    Формат/Информация : Audio Coding 3
    Расширение режима : CM (complete main)
    Параметр Endianness формата : Big
    Идентификатор кодека : 2000
    Продолжительность : 1 ч. 39 м.
    Вид битрейта : Постоянный
    Битрейт : 384 Кбит/сек
    Каналы : 6 каналов
    Расположение каналов : Front: L C R, Side: L R, LFE
    Частота : 48,0 КГц
    Битовая глубина : 16 бит
    Метод сжатия : С потерями
    Размер потока : 273 Мбайт (18%)
    Выравнивание : Разделение по промежуткам
    Продолжительность промежутка : 42 мс. (1,00 видеокадр)
    Время предзагрузки промежутка : 500 мс.

    Скриншот c названием фильма

    Скриншоты

    Скачать .torrent

    Скачать торрент-файл бесплатно и на максимальной скорости!

    Как скачивать? · Что такое торрент? · Рейтинг и ограничения

    !ВНИМАНИЕ!
    Сайт не распространяет и не хранит электронные версии произведений, а занимается лишь лишь предоставлением доступа к создаваемому пользователями каталогу ссылок на торрент-файлы, которые содержат только списки хеш-сумм, убедительная просьба с жалобами обращаться напрямую к пользователю. Файлы для обмена на трекере предоставлены пользователями сайта, и администрация не несёт ответственности за их содержание. Просьба не заливать файлы, защищенные авторскими правами, а также файлы нелегального содержания!


    _________________
    [Профиль] [ЛС]
    Показать сообщения:    
    Ответить на тему

    Текущее время: Сегодня, в 16:30

    Часовой пояс: GMT + 2



    Вы не можете начинать темы
    Вы не можете отвечать на сообщения
    Вы не можете редактировать свои сообщения
    Вы не можете удалять свои сообщения
    Вы не можете голосовать в опросах
    Вы не можете прикреплять файлы к сообщениям
    Вы не можете скачивать файлы