BitTorrentTracker PerecTracker.org
BitTorrentTracker PerecTracker.org
    
Регистрация  ·  Вход
 
 · 
Забыли пароль?

  • Вещи этого мира / Cose dell\'altro mondo (Франческо Патиерно / Francesco Patierno) [2011, Италия, комедия, DVB-AVC] DVO (Kino Polska)

    Ответить на тему
     
    Автор Сообщение

    Light

    Создавать темы 22-Июн-2015 23:18

           

    [Цитировать]

    Вещи этого мира
    Cose dell'altro mondo-Страна: Италия
    Жанр: комедия
    Год выпуска: 2011
    Продолжительность: 01:25:25Перевод: Профессиональный (двухголосый закадровый) по заказу Kino Polska на производственно-технической базе Студии "Акцент"
    Cубтитры: нет
    Режиссер: Франческо Патиерно / Francesco Patierno
    В ролях: Диего Абатантуоно / Diego Abatantuono (Mariso Golfetto), Маурицио Донадони / Maurizio Donadoni (il Sindaco), Лаура Эфрикян / Laura Efrikian (Ariele's mother), Валентина Лодовини / Valentina Lodovini (Laura), Роберта Спарта / Roberta Sparta (Truccatrice)
    Описание: Маризо Гольфетто, управляющий фирмы из Венето, крайне недоволен своими сотрудниками, большинство из которых иммигранты. Он регулярно появляется на местном канале с обличением зла иммиграции и призывами к Господу избавить Италию от иммигрантов. Но будет ли на самом деле божьим благословением чудо, когда в один день все иммигранты исчезнут?
    Доп. информация: Filmbox Arthouse IPTV
    Награды: номинация на лучший полнометражный фильм в секции "Панорама итальянской жизни / Controcampo Italiano Prize" Venice Film Festival 2011; Номинация на Гран-при Tokyo International Film Festival 2011.

    Качество видео: DVB-AVC
    Формат видео: MKV
    Видео: AVC (H.264), 720x576@1024x576 (16:9), 25 fps, ~828 kbps avg, 0.083 bit/pixel
    Аудио: MPEG Audio 2, 2 ch, 48 kHz, ~128.00 kbps avg

    MediaInfo

    ОбщееУникальный идентификатор : 187199226832559495411259562849255396170 (0x8CD5427892A9BCF3B44DBA2786AD934A)Полное имя : F:\My Torrents 3\[apreder]Cose_dell'altro_mondo(2011)DVB.mkvФормат : MatroskaВерсия формата : Version 2Размер файла : 596 МбайтПродолжительность : 1 ч. 25 м.Общий поток : 976 Кбит/секДата кодирования : UTC 2015-06-22 16:37:53Программа кодирования : mkvmerge v8.0.0 ('Til The Day That I Die') 64bitБиблиотека кодирования : libebml v1.3.1 + libmatroska v1.4.2
    ВидеоИдентификатор : 2Формат : AVCФормат/Информация : Advanced Video CodecПрофиль формата : Main@L3Параметр CABAC формата : ДаПараметр ReFrames формата : 3 кадраИдентификатор кодека : V_MPEG4/ISO/AVCПродолжительность : 1 ч. 25 м.Битрейт : 828 Кбит/секШирина : 720 пикселейВысота : 576 пикселейСоотношение сторон : 16:9Соотношение сторон в оригинале : 16:9Режим частоты кадров : ПостоянныйЧастота кадров : 24,194 кадра/секЧастота кадров в оригинале : 25,000 кадров/секСтандарт вещания : ComponentЦветовое пространство : YUVСубдискретизация насыщенности : 4:2:0Битовая глубина : 8 битТип развёртки : ЧересстрочнаяПорядок развёртки : Верхнее поле первоеБит/(Пиксели*Кадры) : 0.083Размер потока : 506 Мбайт (85%)Default : ДаForced : Нетcolour_range : LimitedОсновные цвета : BT.601 PALХарактеристики трансфера : BT.470 System B, BT.470 System GКоэффициенты матрицы : BT.601
    АудиоИдентификатор : 1Формат : MPEG AudioВерсия формата : Version 1Профиль формата : Layer 2Идентификатор кодека : A_MPEG/L2Идентификатор кодека/Подсказка : MP2Продолжительность : 1 ч. 25 м.Вид битрейта : ПостоянныйБитрейт : 128 Кбит/секКаналы : 2 каналаЧастота : 48,0 КГцМетод сжатия : С потерямиЗадержка видео : -17 мс.Размер потока : 78,2 Мбайт (13%)Язык : RussianDefault : ДаForced : Нет

    Скриншот c названием фильма

    Скриншоты

    Резервные скриншоты


    -[2'368]
    Скачать .torrent

    Скачать торрент-файл бесплатно и на максимальной скорости!

    Как скачивать? · Что такое торрент? · Рейтинг и ограничения

    !ВНИМАНИЕ!
    Сайт не распространяет и не хранит электронные версии произведений, а занимается лишь лишь предоставлением доступа к создаваемому пользователями каталогу ссылок на торрент-файлы, которые содержат только списки хеш-сумм, убедительная просьба с жалобами обращаться напрямую к пользователю. Файлы для обмена на трекере предоставлены пользователями сайта, и администрация не несёт ответственности за их содержание. Просьба не заливать файлы, защищенные авторскими правами, а также файлы нелегального содержания!


    _________________
    [Профиль] [ЛС]
    Показать сообщения:    
    Ответить на тему

    Текущее время: Сегодня, в 20:43

    Часовой пояс: GMT + 2



    Вы не можете начинать темы
    Вы не можете отвечать на сообщения
    Вы не можете редактировать свои сообщения
    Вы не можете удалять свои сообщения
    Вы не можете голосовать в опросах
    Вы не можете прикреплять файлы к сообщениям
    Вы не можете скачивать файлы