BitTorrentTracker PerecTracker.org
BitTorrentTracker PerecTracker.org
    
Регистрация  ·  Вход
 
 · 
Забыли пароль?

  • Меч 2 + Пролог (Сезон 2, Серия 1-20 из 20) (Алексей Луканев) [2015, Детектив, криминал ,HDTVRip-AVC 1080p ]

    Ответить на тему
     
    Автор Сообщение

    Враг Нароода

    Создавать темы 22-Июн-2015 13:41

           

    [Цитировать]

    --Меч 2 сезон: 1-20 серии из 20 + Пролог ----Год выпуска: 2015
    Выпущено Россия,DixiMedia
    Жанр: Детектив, криминал
    Продолжительность: 00:44:00
    Сезон: 2
    Серия: 1-20
    Количество серий в сезоне: 20
    Перевод :Не требуется
    Субтитры: Нет----Режиссер: Алексей Луканев--В ролях: Эдуард Флёров, Роман Курцын, Дарья Повереннова, Александр Фисенко, Нина Гогаева, Макс Туранцев, Виктория Фишер, Владислав Павлов, Максим Щёголев, Тимур Ефременков, Анна Шевченко, Артур Сопельник, Дмитрий Архангельский, Александр Лырчиков, Андрей Курилов, Владислав Шкляев, Анна Глазкова, Никита Абдулов, Александр Курицын, Евгений Смирнов-Иваницкий, Анатолий Завьялов, Михаил Инчин, Дмитрий Пищулин, Ирина Шабашева, Александр Логинов (III)--Карательная организация «Меч», созданная для борьбы с преступниками, ушедшими от правосудия, постепенно восстанавливается. Максим Калинин, получивший тяжелые ранения, постепенно приходит в себя и собирает новую команду. Часть ее — знакомые люди, часть — новые, не менее преданные делу герои. Вместе они снова будут противостоять преступности на улицах Москвы. Участники «Меча» по-прежнему находятся на грани: с одной стороны, криминальный мир, который объявляет огромные деньги за их поимку, с другой — правоохранительные органы, которые охотятся на «оборотней».----Качество :HDTVRip-AVC 1080p
    Формат: MPEG-4
    Видео кодек: H264
    Видео: 7312Кбит/сек,1920х1080(16.9),в 25.000кадр/сек,AVC(Baseline@L4.0)(1Ref Frames)
    Аудио кодек: AAC
    Аудио Russian Dolby Digital 5.1:296Кбит/сек,48.0КГц,6каналов,AAC,(Version4)--

    Скриншоты

    --

    MediaInfo

    Общее
    Полное имя : E:\К И Н О\Н А Ш Е К И Н О\М Е Ч\MECH_S02_2015_RUS[NTV_RUSSIA]_DD5.1_H264_Nikolai.Baranov_HDTVRip-AVC_1080p\Mech_S02Е01_Е02_2015_RUS[NTV_RUSSIA]_DD5.1_H264_N.B_HDTVRip-AVC_1080p.mp4
    Формат : MPEG-4
    Профиль формата : Base Media
    Идентификатор кодека : isom
    Размер файла : 4,86 Гбайт
    Продолжительность : 1 ч. 31 м.
    Режим общего битрейта : Переменный
    Общий поток : 7611 Кбит/сек
    Дата кодирования : UTC 2015-06-15 16:22:36
    Дата пометки : UTC 2015-06-15 16:22:36
    Видео
    Идентификатор : 1
    Формат : AVC
    Формат/Информация : Advanced Video Codec
    Профиль формата : Baseline@L4
    Параметр CABAC формата : Нет
    Параметр ReFrames формата : 1 кадр
    Параметр GOP формата : M=1, N=12
    Идентификатор кодека : avc1
    Идентификатор кодека/Информация : Advanced Video Coding
    Продолжительность : 1 ч. 31 м.
    Вид битрейта : Переменный
    Битрейт : 7312 Кбит/сек
    Максимальный битрейт : 10,5 Мбит/сек
    Ширина : 1920 пикселей
    Высота : 1080 пикселей
    Соотношение сторон : 16:9
    Режим частоты кадров : Постоянный
    Частота кадров : 25,000 кадров/сек
    Частота кадров в оригинале : 24,000 кадра/сек
    Цветовое пространство : YUV
    Субдискретизация насыщенности : 4:2:0
    Битовая глубина : 8 бит
    Тип развёртки : Прогрессивная
    Бит/(Пиксели*Кадры) : 0.141
    Размер потока : 4,67 Гбайт (96%)
    Дата кодирования : UTC 2015-03-24 04:43:53
    Дата пометки : UTC 2015-06-15 16:31:37
    Аудио
    Идентификатор : 2
    Формат : AAC
    Формат/Информация : Advanced Audio Codec
    Профиль формата : LC
    Идентификатор кодека : 40
    Продолжительность : 1 ч. 31 м.
    Вид битрейта : Переменный
    Битрейт : 296 Кбит/сек
    Максимальный битрейт : 381 Кбит/сек
    Каналы : 2 канала
    Channel(s)_Original : 6 каналов
    Расположение каналов : Front: L C R, Side: L R, LFE
    Частота : 48,0 КГц
    Метод сжатия : С потерями
    Размер потока : 193 Мбайт (4%)
    Дата кодирования : UTC 2015-06-15 16:24:38
    Дата пометки : UTC 2015-06-15 16:31:37
    ----

    Как закачать отдельный файл

    1. Открыть торрент
    2. Снять галки с тех файлов торрента, которые мы не хотим закачивать. Оставляем только на нужных нам файлах (файле).
    3. Нажать О.К.
    В клиенте utorrent
    Инструкция
    1) Открыть торрент

    2) Снять галки с тех файлов торрента, которые мы не хотим закачивать:
    * либо вручную, снимая с каждого файла галку( скрин №1)
    * либо, нажав кнопку "Снять метки (Select None)", сняв сразу со всех файлов(скрин №2)
    №1

    №2

    Оставляем только на нужных нам файлах (файле).

    3)Нажать О.К
    ------Внимание!!! 26.06. 2015. РАЗДАЧА ОБНОВЛЕНА. ФИНАЛ ССЕЗОНА.ОБНОВИТЕ ТОРЕНТ ФАЙЛ.ПРИЯТНОГО ПРОСМОТРА . --Релиз от: Nikolai.Baranov --------
    Скачать .torrent

    Скачать торрент-файл бесплатно и на максимальной скорости!

    Как скачивать? · Что такое торрент? · Рейтинг и ограничения

    !ВНИМАНИЕ!
    Сайт не распространяет и не хранит электронные версии произведений, а занимается лишь лишь предоставлением доступа к создаваемому пользователями каталогу ссылок на торрент-файлы, которые содержат только списки хеш-сумм, убедительная просьба с жалобами обращаться напрямую к пользователю. Файлы для обмена на трекере предоставлены пользователями сайта, и администрация не несёт ответственности за их содержание. Просьба не заливать файлы, защищенные авторскими правами, а также файлы нелегального содержания!


    _________________

    Легко быть оптимистом, когда судьба не валит с ног тяжелыми ударами, а лишь иногда легонько шлепает по заднице.
    [Профиль] [ЛС]

    -746

    Создавать темы 26-Июн-2015 12:00 (спустя 3 дня)

           

    Внимание! Релиз обновлен! Перекачайте торрент-файл, ®Враг Нароода

    _________________
    Как бы ты высоко не летал, не забывай, с кем ты ползал..
     
    Показать сообщения:    
    Ответить на тему

    Текущее время: Сегодня, в 08:05

    Часовой пояс: GMT + 2



    Вы не можете начинать темы
    Вы не можете отвечать на сообщения
    Вы не можете редактировать свои сообщения
    Вы не можете удалять свои сообщения
    Вы не можете голосовать в опросах
    Вы не можете прикреплять файлы к сообщениям
    Вы не можете скачивать файлы