BitTorrentTracker PerecTracker.org
BitTorrentTracker PerecTracker.org
    
Регистрация  ·  Вход
 
 · 
Забыли пароль?

  • Отзвук (Алишер Хамдамов) [2015, драма, HDRip]

    Ответить на тему
     
    Автор Сообщение

    rechyn

    Создавать темы 22-Июн-2015 10:42

           

    [Цитировать]

    Отзвук
    Жанр: драма
    Год выпуска: 2015
    Продолжительность: 01:28:20
    Режиссёр: Алишер Хамдамов
    В ролях: Светлана Драченина, Иван Моховиков, Ольга Лысак, Мария Палей, Игорь Карташев, Андрей Якимов, Леся Куликова, Егор Потапов, Василиса Усикова, Данил Чопоров
    Описание: После долгого отсутствия в деревне приезжает из города, чтобы навестить 31-летнюю Нину, её старшая сестра, 40-летняя Рита, а вместе с ней — 19-летняя дочь Лена. Визит этих городских жителей, у которых остались во вроде бы благополучном существовании в мегаполисе собственные душевные неурядицы и личные беды, вносит неожиданное смятение в налаженную и внешне спокойную жизнь Нины и её мужа Вити. Медея из российской провинции? Трагедия утраченной любви и неотвратимой мести за поруганную жизнь?
    Но эта история — не только об отчаянии человеческой души, которая больше не в силах терпеть боль и предательство. Не менее важна тревожная, складывающаяся где-то поблизости ситуация уже за пределами отдельной, частной жизни. Макромир оказывает воздействие на микромир, порой приводя к губительным последствиям.
    Сэмпл: http://multi-up.com/1054828
    Качество видео: HDRip
    Формат видео: AVI
    Видео: 720x400 (1.80:1), 25 fps, XviD build 73 ~2164 kbps avg, 0.30 bit/pixel
    Аудио: 48 kHz, AC3 Dolby Digital, 2/0 (L,R) ch, ~192 kbps

    MediaInfo

    Формат : AVI
    Формат/Информация : Audio Video Interleave
    Размер файла : 1,46 Гбайт
    Продолжительность : 1 ч. 28 м.
    Общий поток : 2366 Кбит/сек
    Программа кодирования : VirtualDubMod 1.5.10.3 | www.virtualdub-fr.org || (build 2550/release)
    Библиотека кодирования : VirtualDubMod build 2550/release
    Видео
    Идентификатор : 0
    Формат : MPEG-4 Visual
    Профиль формата : Advanced Simple@L5
    Параметр BVOP формата : 1
    Параметр QPel формата : Нет
    Параметр GMC формата : Без точки перехода
    Параметр матрицы формата : Выборочная
    Идентификатор кодека : XVID
    Идентификатор кодека/Подсказка : XviD
    Продолжительность : 1 ч. 28 м.
    Битрейт : 2164 Кбит/сек
    Ширина : 720 пикселей
    Высота : 400 пикселей
    Соотношение сторон : 16:9
    Частота кадров : 25,000 кадров/сек
    Цветовое пространство : YUV
    Субдискретизация насыщенности : 4:2:0
    Битовая глубина : 8 бит
    Тип развёртки : Прогрессивная
    Метод сжатия : С потерями
    Бит/(Пиксели*Кадры) : 0.301
    Размер потока : 1,34 Гбайт (91%)
    Библиотека кодирования : XviD 73
    Аудио
    Идентификатор : 1
    Формат : AC-3
    Формат/Информация : Audio Coding 3
    Расширение режима : CM (complete main)
    Параметр Endianness формата : Big
    Идентификатор кодека : 2000
    Продолжительность : 1 ч. 28 м.
    Вид битрейта : Постоянный
    Битрейт : 192 Кбит/сек
    Каналы : 2 канала
    Расположение каналов : Front: L R
    Частота : 48,0 КГц
    Битовая глубина : 16 бит
    Метод сжатия : С потерями
    Размер потока : 121 Мбайт (8%)
    Выравнивание : Разделение по промежуткам
    Продолжительность промежутка : 40 мс. (1,00 видеокадр)
    Время предзагрузки промежутка : 500 мс.

    Скриншоты

    Сравнение
    http://perectracker.org/viewtopic.php?t=5028501 http://screenshotcomparison.com/comparison/132040/picture:1
    + Режим смешивания : Сжатый битовый поток
    Скачать .torrent

    Скачать торрент-файл бесплатно и на максимальной скорости!

    Как скачивать? · Что такое торрент? · Рейтинг и ограничения

    !ВНИМАНИЕ!
    Сайт не распространяет и не хранит электронные версии произведений, а занимается лишь лишь предоставлением доступа к создаваемому пользователями каталогу ссылок на торрент-файлы, которые содержат только списки хеш-сумм, убедительная просьба с жалобами обращаться напрямую к пользователю. Файлы для обмена на трекере предоставлены пользователями сайта, и администрация не несёт ответственности за их содержание. Просьба не заливать файлы, защищенные авторскими правами, а также файлы нелегального содержания!


    _________________
    [Профиль] [ЛС]
    Показать сообщения:    
    Ответить на тему

    Текущее время: Сегодня, в 13:54

    Часовой пояс: GMT + 2



    Вы не можете начинать темы
    Вы не можете отвечать на сообщения
    Вы не можете редактировать свои сообщения
    Вы не можете удалять свои сообщения
    Вы не можете голосовать в опросах
    Вы не можете прикреплять файлы к сообщениям
    Вы не можете скачивать файлы