BitTorrentTracker PerecTracker.org
BitTorrentTracker PerecTracker.org
    
Регистрация  ·  Вход
 
 · 
Забыли пароль?

  • Враг респектабельного общества / Доктор Стокман (Микк Микивер) [1989 г., драма, TVRip]

    Ответить на тему
     
    Автор Сообщение

    Columb

    Создавать темы 23-Апр-2013 08:40

           

    [Цитировать]

    Враг респектабельного общества / Доктор Стокман (2 серии)-Год выпуска: 1989
    Страна: CCCP
    Жанр: драма
    Продолжительность: 02:18:00
    Перевод: Не требуется
    Субтитры: нет
    Режиссер: Микк Микивер


    В ролях: Лембит Ульфсак, Мария Кленская, Ангелина Семёнова, Эвальд Хермакюла, Аарне-Мати Юкскюла, Мартин Вейнманн, Рейн Арен, Михкель Леэсмент, Юхан Ульфсак, Хейно Мандри, Айн Лутсепп, Эне Ярвис, Яанус Оргулас, Вийре Вальдма, Вяйно Лаес, Олаф Паесюльд, Эрика Кальюсаар, Кальё Кийск
    Описание: По мотивам драмы норвежского писателя Генрика Ибсена "Враг народа". Действие происходит накануне Первой мировой войны в провинциальном приморском городке. Главный герой - доктор Стокман, способный врач - вместо ядовитой, хотя и сладкой лжи, предлагает согражданам горькую правду. В результате он становится объектом всеобщего порицания и теряет свою работу...
    Качество: TVRip
    Формат: DVD Video
    Видео кодек: MPEG2
    Аудио кодек: MPEG Audio
    Видео: MPEG2 Video, 720х576 (4:3), 2612 Kbps
    Аудио: MPEG Audio, 48.0 KHz, 256 Kbps, 2 channels

    MediaInfo

    General
    Complete name : D:\Торрент\Vrag.respektabelnogo.obshchestva_Dokto.Stokman.1989\VIDEO_TS\VTS_01_1.VOB
    Format : MPEG-PS
    File size : 1 024 MiB
    Duration : 48mn 55s
    Overall bit rate mode : Variable
    Overall bit rate : 2 926 Kbps
    Video
    ID : 224 (0xE0)
    Format : MPEG Video
    Format version : Version 2
    Format profile : Main@Main
    Format settings, BVOP : Yes
    Format settings, Matrix : Default
    Format settings, GOP : M=3, N=15
    Duration : 48mn 55s
    Bit rate mode : Variable
    Bit rate : 2 612 Kbps
    Maximum bit rate : 9 000 Kbps
    Width : 720 pixels
    Height : 576 pixels
    Display aspect ratio : 4:3
    Frame rate : 25.000 fps
    Standard : PAL
    Color space : YUV
    Chroma subsampling : 4:2:0
    Bit depth : 8 bits
    Scan type : Progressive
    Compression mode : Lossy
    Bits/(Pixel*Frame) : 0.252
    Stream size : 914 MiB (89%)
    Audio
    ID : 189 (0xBD)-128 (0x80)
    Format : AC-3
    Format/Info : Audio Coding 3
    Mode extension : CM (complete main)
    Format settings, Endianness : Big
    Muxing mode : DVD-Video
    Duration : 48mn 55s
    Bit rate mode : Constant
    Bit rate : 256 Kbps
    Channel(s) : 2 channels
    Channel positions : Front: L R
    Sampling rate : 48.0 KHz
    Bit depth : 16 bits
    Compression mode : Lossy
    Stream size : 89.6 MiB (9%)
    Menu

    Скриншоты




    Скачать .torrent

    Скачать торрент-файл бесплатно и на максимальной скорости!

    Как скачивать? · Что такое торрент? · Рейтинг и ограничения

    !ВНИМАНИЕ!
    Сайт не распространяет и не хранит электронные версии произведений, а занимается лишь лишь предоставлением доступа к создаваемому пользователями каталогу ссылок на торрент-файлы, которые содержат только списки хеш-сумм, убедительная просьба с жалобами обращаться напрямую к пользователю. Файлы для обмена на трекере предоставлены пользователями сайта, и администрация не несёт ответственности за их содержание. Просьба не заливать файлы, защищенные авторскими правами, а также файлы нелегального содержания!

    [Профиль] [ЛС]
    Показать сообщения:    
    Ответить на тему

    Текущее время: Сегодня, в 10:08

    Часовой пояс: GMT + 2



    Вы не можете начинать темы
    Вы не можете отвечать на сообщения
    Вы не можете редактировать свои сообщения
    Вы не можете удалять свои сообщения
    Вы не можете голосовать в опросах
    Вы не можете прикреплять файлы к сообщениям
    Вы не можете скачивать файлы