BitTorrentTracker PerecTracker.org
BitTorrentTracker PerecTracker.org
    
Регистрация  ·  Вход
 
 · 
Забыли пароль?

  • Супербратья Марио / Super Mario Bros. (Аннабел Джэнкел / Annabel Jankel, Рокки Мортон / Rocky Morton) [1993, США, Великобритания, фэнтези, боевик, комедия, BDRemux 1080p] MVO (R5) + DVO (ЕА) + 3x AVO + VO + Sub Rus, Eng + Original Eng

    Ответить на тему
     
    Автор Сообщение

    Flirldrerve

    Создавать темы 22-Июн-2015 02:18

           

    [Цитировать]

    Супербратья Марио / Super Mario Bros.«Это не игра! Это - взрыв! Добро пожаловать в другое измерение»-Страна: США
    Жанр: фантастика, фэнтези, боевик, комедия
    Продолжительность: 01:44:43
    Год выпуска: 1993
    Перевод 1: Профессиональный (многоголосый закадровый) R5
    Перевод 2: Профессиональный (двухголосый закадровый) Екатеринбург Арт
    Перевод 3: Авторский (одноголосый закадровый) Алексей Михалев
    Перевод 4: Авторский (одноголосый закадровый) Василий Горчаков
    Перевод 5: Авторский (одноголосый закадровый) Антон Пронин
    Перевод 6: Одноголосый закадровый
    Cубтитры: русские (Full) и английские (SDH)
    Оригинальная аудиодорожка: английский-Режиссёр:Аннабел Джэнкел / Annabel Jankel, Рокки Мортон / Rocky Morton, Роланд Жоффе / Roland Joffe, Дин Семлер / Dean Semler (последние оба в титрах не указаны)
    В ролях: Боб Хоскинс, Джон Легуизамо, Деннис Хоппер, Саманта Мэтис, Фишер Стивенс, Ричард Эдсон, Фиона Шоу, Дэна Камински, Моджо Никсон, Джанни Руссо-Описание: Два брата-водопроводчика из Бруклина, Марио Марио и Луиджи Марио, случайно обнаружили совершенно новое измерение. Это подземный мир, в котором правит жестокий тиран Купа, город, населенный людьми-ящерицами, прямыми потомками динозавров.Они жаждут освободиться из подземного плена и под предводительством Купы захватить всю Землю. Ключ к победе хранится в осколке хрустального метеорита, который как драгоценный амулет носит на шее прекрасная юная принцесса Дэйзи. Спасая принцессу, супербратья Марио должны заодно спасти и человеческую цивилизацию…-Доп. информация: Ремукс собран из Bluray.AVC.DTS-HD.MA.5.1-FGT найденного в сети. .
    Ремукс от анвад.
    За все имеющиеся переводы - Спасибо allecs2010-Семпл
    Видеоклип Roxette - "Almost unreal"-Тип релиза: BDRemux 1080p
    Контейнер: MKV
    Видео: MPEG-4 AVC Video 30569 kbps 1080p / 24 fps / 16:9 / High Profile 4.1
    Аудио 1: Russian / AC3 / 5.1 / 48 kHz / 448 kbps / 16 bit || R5
    Аудио 2: Russian / AC3 / 2.0 / 48 kHz / 192 kbps / 16 bit || Екатеринбург Арт
    Аудио 3: Russian / AC3 / 5.1 / 48 kHz / 448 kbps / 16 bit || Михалев
    Аудио 4: Russian / AC3 / 5.1 / 48 kHz / 448 kbps / 16 bit || Горчаков
    Аудио 5: Russian / AC3 / 5.1 / 48 kHz / 448 kbps / 16 bit || Пронин
    Аудио 6: Russian / AC3 / 5.1 / 48 kHz / 448 kbps / 16 bit || Неизвестный
    Аудио 7: English / DTS-HD MA / 5.1 / 48 kHz / 4386 kbps / 24-bit (DTS Core: 5.1 / 48 kHz / 1509 kbps / 24-bit) || Original
    Субтитры: softsub (SRT)
    Навигация по главам: есть-

    MediaInfo

    ОбщееУникальный идентификатор : 246862465823835170278710675090063267013 (0xB9B7FB4413FED5F8AEC2DA247DC894C5)Полное имя : I:\Super Mario Bros.1992.BDRemux.1080p.6xRus.Eng.Sub..mkvФормат : MatroskaВерсия формата : Version 4 / Version 2Размер файла : 27,4 ГбайтПродолжительность : 1 ч. 44 м.Режим общего битрейта : ПеременныйОбщий поток : 37,4 Мбит/секДата кодирования : UTC 2015-06-19 09:44:51Программа кодирования : mkvmerge v7.8.0 ('River Man') 32bit built on Mar 27 2015 16:18:02Библиотека кодирования : libebml v1.3.1 + libmatroska v1.4.2DURATION : 01:43:56.791000000NUMBER_OF_FRAMES : 1454NUMBER_OF_BYTES : 44884_STATISTICS_WRITING_APP : mkvmerge v7.8.0 ('River Man') 32bit built on Mar 27 2015 16:18:02_STATISTICS_WRITING_DATE_UTC : 2015-06-19 09:44:51_STATISTICS_TAGS : BPS DURATION NUMBER_OF_FRAMES NUMBER_OF_BYTES
    ВидеоИдентификатор : 1Формат : AVCФормат/Информация : Advanced Video CodecПрофиль формата : High@L4.1Параметр CABAC формата : ДаПараметр ReFrames формата : 4 кадраИдентификатор кодека : V_MPEG4/ISO/AVCПродолжительность : 1 ч. 44 м.Вид битрейта : ПеременныйМаксимальный битрейт : 38,0 Мбит/секШирина : 1920 пикселейВысота : 1080 пикселейСоотношение сторон : 16:9Режим частоты кадров : ПостоянныйЧастота кадров : 24,000 кадра/секСтандарт вещания : NTSCЦветовое пространство : YUVСубдискретизация насыщенности : 4:2:0Битовая глубина : 8 битТип развёртки : ПрогрессивнаяЗаголовок : Super Mario Bros, BDRemux 1080p / 16:9_Re - (anwad)Язык : EnglishDefault : ДаForced : НетОсновные цвета : BT.709Характеристики трансфера : BT.709Коэффициенты матрицы : BT.709colour_range : LimitedDURATION : 01:44:42.542000000NUMBER_OF_FRAMES : 150781NUMBER_OF_BYTES : 24043424235_STATISTICS_WRITING_APP : mkvmerge v7.8.0 ('River Man') 32bit built on Mar 27 2015 16:18:02_STATISTICS_WRITING_DATE_UTC : 2015-06-19 09:44:51_STATISTICS_TAGS : BPS DURATION NUMBER_OF_FRAMES NUMBER_OF_BYTES
    Аудио #1Идентификатор : 2Формат : AC-3Формат/Информация : Audio Coding 3Расширение режима : CM (complete main)Параметр Endianness формата : BigИдентификатор кодека : A_AC3Продолжительность : 1 ч. 44 м.Вид битрейта : ПостоянныйБитрейт : 448 Кбит/секКаналы : 6 каналовРасположение каналов : Front: L C R, Side: L R, LFEЧастота : 48,0 КГцБитовая глубина : 16 битМетод сжатия : С потерямиРазмер потока : 336 Мбайт (1%)Заголовок : AC3 / 5.1 / 448 Kbps / MVO (R5)Язык : RussianDefault : ДаForced : Нет
    Аудио #2Идентификатор : 3Формат : AC-3Формат/Информация : Audio Coding 3Расширение режима : CM (complete main)Параметр Endianness формата : BigИдентификатор кодека : A_AC3Продолжительность : 1 ч. 44 м.Вид битрейта : ПостоянныйБитрейт : 192 Кбит/секКаналы : 2 каналаРасположение каналов : Front: L RЧастота : 48,0 КГцБитовая глубина : 16 битМетод сжатия : С потерямиРазмер потока : 144 Мбайт (1%)Заголовок : AC3 / 2.0 / 192 Kbps / DVO (EA)Язык : RussianDefault : НетForced : Нет
    Аудио #3Идентификатор : 4Формат : AC-3Формат/Информация : Audio Coding 3Расширение режима : CM (complete main)Параметр Endianness формата : BigИдентификатор кодека : A_AC3Продолжительность : 1 ч. 44 м.Вид битрейта : ПостоянныйБитрейт : 448 Кбит/секКаналы : 6 каналовРасположение каналов : Front: L C R, Side: L R, LFEЧастота : 48,0 КГцБитовая глубина : 16 битМетод сжатия : С потерямиРазмер потока : 336 Мбайт (1%)Заголовок : AC3 / 5.1 / 448 Kbps / AVO (Михалев)Язык : RussianDefault : НетForced : Нет
    Аудио #4Идентификатор : 5Формат : AC-3Формат/Информация : Audio Coding 3Расширение режима : CM (complete main)Параметр Endianness формата : BigИдентификатор кодека : A_AC3Продолжительность : 1 ч. 44 м.Вид битрейта : ПостоянныйБитрейт : 448 Кбит/секКаналы : 6 каналовРасположение каналов : Front: L C R, Side: L R, LFEЧастота : 48,0 КГцБитовая глубина : 16 битМетод сжатия : С потерямиРазмер потока : 336 Мбайт (1%)Заголовок : AC3 / 5.1 / 448 Kbps / AVO (Горчаков)Язык : RussianDefault : НетForced : Нет
    Аудио #5Идентификатор : 6Формат : AC-3Формат/Информация : Audio Coding 3Расширение режима : CM (complete main)Параметр Endianness формата : BigИдентификатор кодека : A_AC3Продолжительность : 1 ч. 44 м.Вид битрейта : ПостоянныйБитрейт : 448 Кбит/секКаналы : 6 каналовРасположение каналов : Front: L C R, Side: L R, LFEЧастота : 48,0 КГцБитовая глубина : 16 битМетод сжатия : С потерямиРазмер потока : 336 Мбайт (1%)Заголовок : AC3 / 5.1 / 448 Kbps / AVO (Пронин)Язык : RussianDefault : НетForced : Нет
    Аудио #6Идентификатор : 7Формат : AC-3Формат/Информация : Audio Coding 3Расширение режима : CM (complete main)Параметр Endianness формата : BigИдентификатор кодека : A_AC3Продолжительность : 1 ч. 44 м.Вид битрейта : ПостоянныйБитрейт : 448 Кбит/секКаналы : 6 каналовРасположение каналов : Front: L C R, Side: L R, LFEЧастота : 48,0 КГцБитовая глубина : 16 битМетод сжатия : С потерямиРазмер потока : 336 Мбайт (1%)Заголовок : AC3 / 5.1 / 448 Kbps / AVO (неизвестный)Язык : RussianDefault : НетForced : Нет
    Аудио #7Идентификатор : 8Формат : DTSФормат/Информация : Digital Theater SystemsПрофиль формата : MA / CoreРежим : 16Параметр Endianness формата : BigИдентификатор кодека : A_DTSПродолжительность : 1 ч. 44 м.Вид битрейта : ПеременныйБитрейт : Неизвестно / 1509 Кбит/секКаналы : 6 каналовРасположение каналов : Front: L C R, Side: L R, LFEЧастота : 48,0 КГцБитовая глубина : 24 битМетод сжатия : Без потерь / LossyЗаголовок : DTS-HD MA / DTS Core: 5.1 / 48 kHz / 24-bit / 4386 kbps / 1509 kbps (Original)Язык : EnglishDefault : НетForced : Нет
    Текст #1Идентификатор : 9Формат : UTF-8Идентификатор кодека : S_TEXT/UTF8Идентификатор кодека/Информация : UTF-8 Plain TextЗаголовок : SRTЯзык : RussianDefault : НетForced : Нет
    Текст #2Идентификатор : 10Формат : UTF-8Идентификатор кодека : S_TEXT/UTF8Идентификатор кодека/Информация : UTF-8 Plain TextЗаголовок : SRTЯзык : EnglishDefault : НетForced : Нет
    Меню00:00:00.000 : en:Chapter 0100:07:02.083 : en:Chapter 0200:13:26.000 : en:Chapter 0300:17:38.916 : en:Chapter 0400:23:04.416 : en:Chapter 0500:28:05.333 : en:Chapter 0600:36:10.208 : en:Chapter 0700:45:44.666 : en:Chapter 0800:50:30.291 : en:Chapter 0900:57:25.541 : en:Chapter 1001:05:15.166 : en:Chapter 1101:11:38.791 : en:Chapter 1201:19:57.625 : en:Chapter 1301:24:14.541 : en:Chapter 1401:29:50.041 : en:Chapter 1501:38:23.250 : en:Chapter 1601:39:25.375 : en:Chapter 17

    Скриншоты

    -
    Скачать .torrent

    Скачать торрент-файл бесплатно и на максимальной скорости!

    Как скачивать? · Что такое торрент? · Рейтинг и ограничения

    !ВНИМАНИЕ!
    Сайт не распространяет и не хранит электронные версии произведений, а занимается лишь лишь предоставлением доступа к создаваемому пользователями каталогу ссылок на торрент-файлы, которые содержат только списки хеш-сумм, убедительная просьба с жалобами обращаться напрямую к пользователю. Файлы для обмена на трекере предоставлены пользователями сайта, и администрация не несёт ответственности за их содержание. Просьба не заливать файлы, защищенные авторскими правами, а также файлы нелегального содержания!


    _________________
    [Профиль] [ЛС]
    Показать сообщения:    
    Ответить на тему

    Текущее время: Сегодня, в 16:32

    Часовой пояс: GMT + 2



    Вы не можете начинать темы
    Вы не можете отвечать на сообщения
    Вы не можете редактировать свои сообщения
    Вы не можете удалять свои сообщения
    Вы не можете голосовать в опросах
    Вы не можете прикреплять файлы к сообщениям
    Вы не можете скачивать файлы