BitTorrentTracker PerecTracker.org
BitTorrentTracker PerecTracker.org
    
Регистрация  ·  Вход
 
 · 
Забыли пароль?

  • Приключения Тинтина: Дело Турнесоля / Les Aventures de Tintin: L\'Affaire Tournesol / The Adventures of Tintin. The Calculus Affair (Рей Госсенс / Ray Goossens) [1964, мультфильм, детектив, приключения, SATRip] DUB

    Ответить на тему
     
    Автор Сообщение

    rechyn

    Создавать темы 22-Июн-2015 02:18

           

    [Цитировать]

    Приключения Тинтина: Дело Турнесоля
    The Adventures of Tintin. The Calculus Affair
    Страна: Бельгия
    Жанр: мультфильм, детектив, приключения
    Продолжительность: 00:57:00
    Год выпуска: 1964-Перевод: Профессиональный (дублированный)
    Русские субтитры: нет
    Режиссёр: Рей Госсенс / Ray Goossens-Описание: В имении Муленсар начинают происходит необъяснимые вещи — трескаются зеркала, разлетаются вдребезги окна, от старинных китайских ваз остаются одни черепки. Чудеса прекращаются, как только профессор Турнесоль покидает свою лабораторию и отбывает на научную конференцию в Женеву.
    Тинтин подозревает, что во всём виноваты эксперименты Турнесоля. Они с капитаном отправляются в лабораторию, где сталкиваются с подозрительным иностранцем в маске. Сбив капитана с ног, незнакомцу удаётся скрыться — но только после того, как Милу оторвал часть кармана его плаща, откуда выпала пачка сигарет. На ней друзья прочитали название женевской гостиницы, где собирался остановиться профессор. Опасаясь за безопасность своего друга, Тинтин и капитан направляются в Женеву.-Релиз:
    | | -• Спасибо xfiles за DVB исходник.-Качество: SATRip
    Формат: AVI
    Видео: 720x400 (1.80:1), 25,000 fps, XviD 65 ~1 692 kbps avg, 0.23 bit/pixel
    Аудио: 48.0 kHz, MPEG Layer 3, 2/0 (L,R) ch, ~128 kbps
    Субтитры: отсутствуют

    MI


    Общее
    Полное имя : E:\incarcare\rip gata\Les.Aventures.de.Tintin-L'Affaire.Tournesol.1964.SATRip.avi
    Формат : AVI
    Формат/Информация : Audio Video Interleave
    Размер файла : 746 Мбайт
    Продолжительность : 57 м.
    Общий поток : 1830 Кбит/сек
    Программа кодирования : VirtualDubMod 1.5.10.2 (build 2540/release)
    Библиотека кодирования : VirtualDubMod build 2540/release
    Видео
    Идентификатор : 0
    Формат : MPEG-4 Visual
    Профиль формата : Advanced Simple@L5
    Параметр BVOP формата : 1
    Параметр QPel формата : Нет
    Параметр GMC формата : Без точки перехода
    Параметр матрицы формата : Выборочная
    Идентификатор кодека : XVID
    Идентификатор кодека/Подсказка : XviD
    Продолжительность : 57 м.
    Битрейт : 1692 Кбит/сек
    Ширина : 720 пикселей
    Высота : 400 пикселей
    Соотношение сторон : 16:9
    Частота кадров : 25,000 кадров/сек
    Цветовое пространство : YUV
    Субдискретизация насыщенности : 4:2:0
    Битовая глубина : 8 бит
    Тип развёртки : Прогрессивная
    Метод сжатия : С потерями
    Бит/(Пиксели*Кадры) : 0.235
    Размер потока : 690 Мбайт (92%)
    Библиотека кодирования : XviD 65
    Аудио
    Идентификатор : 1
    Формат : MPEG Audio
    Версия формата : Version 1
    Профиль формата : Layer 3
    Идентификатор кодека : 55
    Идентификатор кодека/Подсказка : MP3
    Продолжительность : 57 м.
    Вид битрейта : Постоянный
    Битрейт : 128 Кбит/сек
    Каналы : 2 канала
    Частота : 48,0 КГц
    Метод сжатия : С потерями
    Размер потока : 52,2 Мбайт (7%)
    Выравнивание : Соединение по промежуткам
    Продолжительность промежутка : 40 мс. (1,00 видеокадр)
    Время предзагрузки промежутка : 504 мс.

    Скриншоты

    Скачать .torrent

    Скачать торрент-файл бесплатно и на максимальной скорости!

    Как скачивать? · Что такое торрент? · Рейтинг и ограничения

    !ВНИМАНИЕ!
    Сайт не распространяет и не хранит электронные версии произведений, а занимается лишь лишь предоставлением доступа к создаваемому пользователями каталогу ссылок на торрент-файлы, которые содержат только списки хеш-сумм, убедительная просьба с жалобами обращаться напрямую к пользователю. Файлы для обмена на трекере предоставлены пользователями сайта, и администрация не несёт ответственности за их содержание. Просьба не заливать файлы, защищенные авторскими правами, а также файлы нелегального содержания!


    _________________
    [Профиль] [ЛС]
    Показать сообщения:    
    Ответить на тему

    Текущее время: Сегодня, в 09:48

    Часовой пояс: GMT + 2



    Вы не можете начинать темы
    Вы не можете отвечать на сообщения
    Вы не можете редактировать свои сообщения
    Вы не можете удалять свои сообщения
    Вы не можете голосовать в опросах
    Вы не можете прикреплять файлы к сообщениям
    Вы не можете скачивать файлы