BitTorrentTracker PerecTracker.org
BitTorrentTracker PerecTracker.org
    
Регистрация  ·  Вход
 
 · 
Забыли пароль?

  • Погоня за красотой / Bad Hair Day (Эрик Кануэль / Eric Canuel) [2015, комедия, приключения, WEB-DLRip-AVC] Dub + Original (Eng)

    Ответить на тему
     
    Автор Сообщение

    rechyn

    Создавать темы 22-Июн-2015 02:18

           

    [Цитировать]

    Погоня за красотой
    Bad Hair Day
    «The road to prom can be a big hairy mess»


    Страна: Канада
    Жанр: комедия, приключения
    Год выпуска: 2015
    Продолжительность: 01:31:14
    Перевод: Профессиональный (полное дублирование) [Disney]
    Cубтитры: нет
    Оригинальная аудиодорожка: Английский
    Режиссер:
    Эрик Кануэль / Eric Canuel
    В ролях:
    Лора Марано, Ли-Эллин Бейкер, Кристиан Кэмпбелл, Ален Голем, Кристиан Пол, Киана Мадейра, Джейк Мэнли, Зои Де Гранд Мезон, Майк Патерсон, Полин Литтл
    Описание:
    Моника собирается на выпускной вечер. С самого утра у девушки все идет наперекосяк, но последней каплей становится её кошмарная прическа. Бедняжка думает, что хуже уже ничего быть не может, но тут в ее дверь стучится полицейский, разыскивающий пропавшие драгоценности. Это становится началом грандиозного приключения...

    Релиз:
    Автор рипа: Stalker oK
    Сэмпл
    Качество видео: WEB-DLRip-AVC [Bad.Hair.Day.iT1080p.MiMa]
    Формат видео: MKV
    Видео кодек: AVC
    Аудио кодек: АС3
    Видео: 1894 Кбит/сек, 896*504 (16:9), в 23,976 кадр/сек, AVC
    Аудио #1: Russian, 192 Кбит/сек, 48,0 КГц, 16 бит, 2 канала(ов), AC-3
    Аудио #2: English, 192 Кбит/сек, 48,0 КГц, 16 бит, 2 канала(ов), AC-3

    MediaInfo

    Общее
    Уникальный идентификатор : 241509871390477813315743450571910639696 (0xB5B11BFC3D0A5F0891BE5D4E55F77050)
    Полное имя : L:\рипы\Погоня за красотой\Pogonja.za.krasotoj.2015.WEB-DLRip-AVC.Dub.1.45Gb...stalkerok.new-team.mkv
    Формат : Matroska
    Размер файла : 1,45 Гбайт
    Продолжительность : 1 ч. 31 м.
    Общий поток : 2280 Кбит/сек
    Название фильма : Bad Hair Day, 2015 (New-Team) (Rip by Stalker oK)
    Дата кодирования : UTC 2015-06-21 14:31:44
    Программа кодирования : mkvmerge v7.9.0 ('Birds') 64bit
    Библиотека кодирования : libebml v1.3.1 + libmatroska v1.4.2
    Видео
    Идентификатор : 1
    Формат : AVC
    Формат/Информация : Advanced Video Codec
    Профиль формата : High@L4.1
    Параметр CABAC формата : Да
    Параметр ReFrames формата : 12 кадры
    Идентификатор кодека : V_MPEG4/ISO/AVC
    Продолжительность : 1 ч. 31 м.
    Битрейт : 1894 Кбит/сек
    Ширина : 896 пикс.
    Высота : 504 пикс.
    Соотношение сторон : 16:9
    Частота кадров : 23,976 кадр/сек
    Цветовое пространство : YUV
    Подвыборка цветности : 4:2:0
    Битовая глубина : 8 бит
    Тип развёртки : Прогрессивная
    Бит/(Пиксели*Кадры) : 0.175
    Размер потока : 1,18 Гбайт (81%)
    Библиотека кодирования : x264 core 146 r2538kMod 121396c
    Настройки программы : cabac=1 / ref=12 / deblock=1:-3:-2 / analyse=0x3:0x133 / me=umh / subme=11 / psy=1 / fade_compensate=0.00 / psy_rd=1.05:0.10 / mixed_ref=1 / me_range=32 / chroma_me=1 / trellis=2 / 8x8dct=1 / cqm=0 / deadzone=21,11 / fast_pskip=0 / chroma_qp_offset=-3 / threads=12 / lookahead_threads=3 / sliced_threads=0 / nr=0 / decimate=0 / interlaced=0 / bluray_compat=0 / constrained_intra=0 / fgo=0 / bframes=14 / b_pyramid=2 / b_adapt=2 / b_bias=0 / direct=3 / weightb=1 / open_gop=0 / weightp=2 / keyint=240 / keyint_min=23 / scenecut=40 / intra_refresh=0 / rc_lookahead=40 / rc=2pass / mbtree=0 / bitrate=1894 / ratetol=1.0 / qcomp=0.70 / qpmin=0 / qpmax=69 / qpstep=4 / cplxblur=20.0 / qblur=0.5 / vbv_maxrate=50000 / vbv_bufsize=62500 / nal_hrd=none / filler=0 / ip_ratio=1.40 / pb_ratio=1.30 / aq=3:0.90
    Аудио #1
    Идентификатор : 2
    Формат : AC-3
    Формат/Информация : Audio Coding 3
    Расширение режима : CM (complete main)
    Идентификатор кодека : A_AC3
    Продолжительность : 1 ч. 31 м.
    Вид битрейта : Постоянный
    Битрейт : 192 Кбит/сек
    Канал(ы) : 2 канала(ов)
    Расположение каналов : Front: L R
    Частота : 48,0 КГц
    Битовая глубина : 16 бит
    Метод сжатия : С потерями
    Размер потока : 125 Мбайт (8%)
    Язык : Russian
    Аудио #2
    Идентификатор : 3
    Формат : AC-3
    Формат/Информация : Audio Coding 3
    Расширение режима : CM (complete main)
    Идентификатор кодека : A_AC3
    Продолжительность : 1 ч. 31 м.
    Вид битрейта : Постоянный
    Битрейт : 192 Кбит/сек
    Канал(ы) : 2 канала(ов)
    Расположение каналов : Front: L R
    Частота : 48,0 КГц
    Битовая глубина : 16 бит
    Метод сжатия : С потерями
    Размер потока : 125 Мбайт (8%)
    Язык : English

    Скриншоты

    Скачать .torrent

    Скачать торрент-файл бесплатно и на максимальной скорости!

    Как скачивать? · Что такое торрент? · Рейтинг и ограничения

    !ВНИМАНИЕ!
    Сайт не распространяет и не хранит электронные версии произведений, а занимается лишь лишь предоставлением доступа к создаваемому пользователями каталогу ссылок на торрент-файлы, которые содержат только списки хеш-сумм, убедительная просьба с жалобами обращаться напрямую к пользователю. Файлы для обмена на трекере предоставлены пользователями сайта, и администрация не несёт ответственности за их содержание. Просьба не заливать файлы, защищенные авторскими правами, а также файлы нелегального содержания!


    _________________
    [Профиль] [ЛС]
    Показать сообщения:    
    Ответить на тему

    Текущее время: Сегодня, в 16:51

    Часовой пояс: GMT + 2



    Вы не можете начинать темы
    Вы не можете отвечать на сообщения
    Вы не можете редактировать свои сообщения
    Вы не можете удалять свои сообщения
    Вы не можете голосовать в опросах
    Вы не можете прикреплять файлы к сообщениям
    Вы не можете скачивать файлы