BitTorrentTracker PerecTracker.org
BitTorrentTracker PerecTracker.org
    
Регистрация  ·  Вход
 
 · 
Забыли пароль?

  • Новые приключения неуловимых (Эдмонд Кеосаян) [1968, приключения, DVDRip-AVC]

    Ответить на тему
     
    Автор Сообщение

    Light

    Создавать темы 21-Июн-2015 22:06

           

    [Цитировать]

    Новые приключения неуловимых-Жанр: приключения
    Год выпуска: 1968
    Продолжительность: 01:17:44
    Субтитры: русские, английские-Режиссёр: Эдмонд Кеосаян-В ролях:
    Михаил Метёлкин, Василий Васильев, Виктор Косых, Валентина Курдюкова, Армен Джигарханян, Борис Сичкин, Аркадий Толбузин, Владимир Ивашов, Ефим Копелян, Константин Сорокин, Иван Переверзев, Николай Федорцов, Евгений Весник, Сергей Филиппов, Савелий Крамаров, Юрий Мартынов, Галина Рыбак, Светлана Светличная, Валентина Березуцкая, Владимир Белокуров, Виктор Колпаков, Станислав Чекан, Иван Савкин, Леонид Чубаров, Юрий Боголюбов, Иван Жеваго, Людмила Карауш, Зоя Толбузина, Эдуард Абалов (Абалян), Лев Поляков, Алексей Бахарь, Эммануил Геллер, Валентин Кулик, Ян Френкель, Анатолий Бурдо, Аркадий Арзуманян, Олег Роге, Лев Фричинский, Иван Турченков
    Описание:
    Вторая часть популярного фильма о приключениях четырех подростков во время гражданской войны. Крым накануне освобождения от белогвардейцев. Возвращаясь из дозора, четверка "неуловимых" подбивает аэроплан. В планшете взятого в плен летчика они обнаруживают секретные донесения, где говорится о существовании плана оборонительных сооружений. "Красные дьяволята" подросли, повзрослели, и ЧК поручает им важное и опасное задание: проникнуть в занятую белогвардейцами Одессу и добыть карту укреплённого района из сейфа начальника контрразведки.-Сэмпл | -Качество видео: DVDRip-AVC
    Формат видео: MKV
    Видео: x264 (High@L4.1); 718@1024x436, Display aspect ratio 2.349:1, 25.000 fps, 2500 Kbps
    Аудио 1: Оригинал: AC-3; 16 bit 48 Khz; Моно 128 Kbps; CBR
    Аудио 2: Оригинал: AC-3; 16 bit 48 Khz; 5.1ch 448 Kbps; CBR (отдельно)
    Формат субтитров: softsub (SRT)

    MediaInfo


    -

    x264 log

    avs [info]: 718x436p 639:448 @ 25/1 fps (cfr)
    x264 [info]: using SAR=639/448
    x264 [info]: using cpu capabilities: MMX2 SSE2Fast SSSE3 SSE4.2
    x264 [info]: profile High, level 4.1
    x264 [info]: frame I:711 Avg QP:19.84 size: 60507
    x264 [info]: frame P:31659 Avg QP:22.12 size: 23750
    x264 [info]: frame B:84234 Avg QP:24.78 size: 7870
    x264 [info]: consecutive B-frames: 4.6% 3.2% 12.4% 42.7% 17.0% 18.4% 1.4% 0.3%
    x264 [info]: mb I I16..4: 3.4% 77.5% 19.1%
    x264 [info]: mb P I16..4: 0.3% 14.0% 2.2% P16..4: 30.9% 32.4% 15.0% 2.2% 0.3% skip: 2.7%
    x264 [info]: mb B I16..4: 0.0% 2.7% 0.5% B16..8: 31.8% 19.7% 3.7% direct: 7.9% skip:33.7% L0:31.7% L1:39.4% BI:28.9%
    x264 [info]: 8x8 transform intra:83.7% inter:61.7%
    x264 [info]: direct mvs spatial:98.2% temporal:1.8%
    x264 [info]: coded y,uvDC,uvAC intra: 92.9% 85.9% 56.6% inter: 36.3% 27.1% 11.4%
    x264 [info]: i16 v,h,dc,p: 23% 16% 8% 54%
    x264 [info]: i8 v,h,dc,ddl,ddr,vr,hd,vl,hu: 17% 8% 6% 8% 12% 13% 11% 12% 13%
    x264 [info]: i4 v,h,dc,ddl,ddr,vr,hd,vl,hu: 45% 6% 4% 5% 8% 9% 7% 7% 7%
    x264 [info]: i8c dc,h,v,p: 27% 27% 28% 18%
    x264 [info]: Weighted P-Frames: Y:38.5% UV:18.7%
    x264 [info]: ref P L0: 44.7% 14.9% 13.3% 6.2% 3.9% 3.4% 2.7% 1.7% 1.5% 1.3% 1.2% 1.1% 1.0% 1.0% 1.0% 0.8%
    x264 [info]: ref B L0: 87.9% 6.0% 1.8% 1.0% 0.7% 0.6% 0.4% 0.3% 0.3% 0.2% 0.2% 0.2% 0.2% 0.1% 0.1%
    x264 [info]: ref B L1: 97.4% 2.6%
    x264 [info]: kb/s:2500.46
    x264 [total]: encoded 116604 frames, 14.34 fps, 2500.46 kb/s, duration 2:15:31.25
    -General
    Unique ID : 210109534892095768199433046344286916185 (0x9E119FDE3FAB84E08F3B3A08B03CCE59)
    Complete name : Новые приключения неуловимых.1968.mkv
    Format : Matroska
    Format version : Version 2
    File size : 1.43 GiB
    Duration : 1h 17mn
    Overall bit rate : 2 633 Kbps
    Movie name : «Новые приключения неуловимых»
    Encoded date : UTC 2015-06-15 20:12:45
    Writing application : mkvmerge v5.8.0 ('No Sleep / Pillow') built on Sep 2 2012 15:37:04
    Writing library : libebml v1.2.3 + libmatroska v1.3.0
    Comment : DVDRip-AVC
    Originally released : June 13th 2015
    Encoded by : george$t®
    Video
    ID : 1
    Format : AVC
    Format/Info : Advanced Video Codec
    Format profile : High@L4.1
    Format settings, CABAC : Yes
    Format settings, ReFrames : 16 frames
    Codec ID : V_MPEG4/ISO/AVC
    Duration : 1h 17mn
    Bit rate : 2 500 Kbps
    Width : 718 pixels
    Height : 436 pixels
    Display aspect ratio : 2.35:1
    Frame rate mode : Constant
    Frame rate : 25.000 fps
    Color space : YUV
    Chroma subsampling : 4:2:0
    Bit depth : 8 bits
    Scan type : Progressive
    Bits/(Pixel*Frame) : 0.319
    Stream size : 1.33 GiB (93%)
    Title : Новые приключения неуловимых.1968
    Writing library : x264 core 146 r2538kMod 121396c
    Encoding settings : cabac=1 / ref=16 / deblock=1:-1:0 / analyse=0x3:0x133 / me=umh / subme=11 / psy=1 / fade_compensate=0.00 / psy_rd=0.95:0.15 / mixed_ref=1 / me_range=32 / chroma_me=1 / trellis=2 / 8x8dct=1 / cqm=0 / deadzone=21,11 / fast_pskip=0 / chroma_qp_offset=-3 / threads=12 / lookahead_threads=2 / sliced_threads=0 / nr=0 / decimate=0 / interlaced=0 / bluray_compat=0 / constrained_intra=0 / fgo=0 / bframes=8 / b_pyramid=2 / b_adapt=2 / b_bias=0 / direct=3 / weightb=1 / open_gop=0 / weightp=2 / keyint=250 / keyint_min=25 / scenecut=40 / intra_refresh=0 / rc_lookahead=40 / rc=2pass / mbtree=0 / bitrate=2500 / ratetol=1.0 / qcomp=0.60 / qpmin=0 / qpmax=32 / qpstep=4 / cplxblur=20.0 / qblur=0.5 / vbv_maxrate=50000 / vbv_bufsize=62500 / nal_hrd=none / filler=0 / ip_ratio=1.25 / pb_ratio=1.30 / aq=1:0.90
    Language : Russian
    Default : Yes
    Forced : No
    Color primaries : BT.601 PAL
    Transfer characteristics : BT.470 System B, BT.470 System G
    Matrix coefficients : BT.601
    Color range : Limited
    Audio
    ID : 2
    Format : AC-3
    Format/Info : Audio Coding 3
    Mode extension : CM (complete main)
    Format settings, Endianness : Big
    Codec ID : A_AC3
    Duration : 1h 17mn
    Bit rate mode : Constant
    Bit rate : 128 Kbps
    Channel(s) : 1 channel
    Channel positions : Front: C
    Sampling rate : 48.0 KHz
    Bit depth : 16 bits
    Compression mode : Lossy
    Stream size : 71.2 MiB (5%)
    Title : Оригинал: AC-3; 16 bit 48 Khz; Mono 128 Kbps; CBR
    Language : Russian
    Default : Yes
    Forced : No
    Text #1
    ID : 3
    Format : UTF-8
    Codec ID : S_TEXT/UTF8
    Codec ID/Info : UTF-8 Plain Text
    Title : Субтитры русские
    Language : Russian
    Default : No
    Forced : No
    Text #2
    ID : 4
    Format : UTF-8
    Codec ID : S_TEXT/UTF8
    Codec ID/Info : UTF-8 Plain Text
    Title : Субтитры английские
    Language : English
    Default : No
    Forced : No
    Menu
    00:00:00.000 : ru:Неуловимые в бою
    00:04:16.800 : ru:Пакет
    00:12:55.800 : ru:В городе
    00:17:21.000 : ru:И снова Буба
    00:25:13.800 : ru:Бильярд
    00:30:16.800 : ru:"Боже, царя храни!"
    00:37:14.400 : ru:Бурнаш
    00:43:09.000 : ru:На грани провала
    00:45:43.200 : ru:Очная ставка
    00:53:09.600 : ru:Яшка
    01:00:51.000 : ru:Спасти Даньку
    01:07:56.400 : ru:Задание выполнено

    Скриншоты

    Скачать .torrent

    Скачать торрент-файл бесплатно и на максимальной скорости!

    Как скачивать? · Что такое торрент? · Рейтинг и ограничения

    !ВНИМАНИЕ!
    Сайт не распространяет и не хранит электронные версии произведений, а занимается лишь лишь предоставлением доступа к создаваемому пользователями каталогу ссылок на торрент-файлы, которые содержат только списки хеш-сумм, убедительная просьба с жалобами обращаться напрямую к пользователю. Файлы для обмена на трекере предоставлены пользователями сайта, и администрация не несёт ответственности за их содержание. Просьба не заливать файлы, защищенные авторскими правами, а также файлы нелегального содержания!


    _________________
    [Профиль] [ЛС]

    -746

    Создавать темы 24-Янв-2016 22:24 (спустя 7 месяцев 3 дня)

           

    Топик был перенесен из форума Кино СССР в форум Детские отечественные фильмы


    -sasha2006

    _________________
    Как бы ты высоко не летал, не забывай, с кем ты ползал..
     
    Показать сообщения:    
    Ответить на тему

    Текущее время: Сегодня, в 05:56

    Часовой пояс: GMT + 2



    Вы не можете начинать темы
    Вы не можете отвечать на сообщения
    Вы не можете редактировать свои сообщения
    Вы не можете удалять свои сообщения
    Вы не можете голосовать в опросах
    Вы не можете прикреплять файлы к сообщениям
    Вы не можете скачивать файлы