Register  ·  Log in
Forgot password?

  • 5 браво / 5 Bravo (Куно Беккер / Kuno Becker) [2014, Мексика, триллер, DVDRip] VO (Васька Куролесов)

    Reply to topic
    Author Message


    Post 21-Jun-2015 02:06



    5 браво / 5 Bravo
    Страна: Мексика
    Жанр: триллер
    Год выпуска: 2014
    Продолжительность: 01:24:13
    Перевод: Одноголосый закадровый Васька Куролесов по субтитрам DeepestLore
    Cубтитры: нет
    Оригинальная аудиодорожка: нет
    Режиссер: Куно Беккер / Kuno Becker
    В ролях: Куно Беккер, Катерина Папиле, Дэн Ровзар, Рауль Мендес, Джон Генри Ричардсон, Шалим Ортис, София Сисньега, Хенаро Эрнандез
    Описание: Команда скорой помощи получает вызов из Аризоны. Но вскоре узнают что помощь нужна на стороне Мексики. Незаконно пересекли границу и подобрали пострадавшего. Но вот они уже заложники, закрытые в фургоне своей машины.
    Качество видео: DVDRip
    Формат видео: AVI
    Видео: 640x352 (1.82:1), 23.976 fps, XviD MPEG-4 ~1022 kbps avg, 0.19 bit/pixel
    Аудио: 48 kHz, MPEG Layer 3, 2 ch, ~128.00 kbps avg

    Присутствует немного ненорматива!


    Complete name : C:\Users\Вика\Desktop\Pаnic.5.Brаvо.2014.DVDRip.avi
    Format : AVI
    Format/Info : Audio Video Interleave
    File size : 699 MiB
    Duration : 1h 24mn
    Overall bit rate : 1 160 Kbps
    Writing application : VirtualDubModRus (build 2542/release)
    Writing library : VirtualDubMod build 2542/release
    ID : 0
    Format : MPEG-4 Visual
    Format profile : Advanced Simple@L5
    Format settings, BVOP : 2
    Format settings, QPel : No
    Format settings, GMC : No warppoints
    Format settings, Matrix : Default (H.263)
    Muxing mode : Packed bitstream
    Codec ID : XVID
    Codec ID/Hint : XviD
    Duration : 1h 24mn
    Bit rate : 1 023 Kbps
    Width : 640 pixels
    Height : 352 pixels
    Display aspect ratio : 16:9
    Frame rate : 23.976 fps
    Color space : YUV
    Chroma subsampling : 4:2:0
    Bit depth : 8 bits
    Scan type : Progressive
    Compression mode : Lossy
    Bits/(Pixel*Frame) : 0.189
    Stream size : 616 MiB (88%)
    Writing library : XviD 64
    ID : 1
    Format : MPEG Audio
    Format version : Version 1
    Format profile : Layer 3
    Codec ID : 55
    Codec ID/Hint : MP3
    Duration : 1h 24mn
    Bit rate mode : Constant
    Bit rate : 128 Kbps
    Channel(s) : 2 channels
    Sampling rate : 48.0 KHz
    Compression mode : Lossy
    Stream size : 77.1 MiB (11%)
    Alignment : Aligned on interleaves
    Interleave, duration : 42 ms (1.00 video frame)
    Interleave, preload duration : 504 ms
    Writing library : LAME3.99r
    Encoding settings : -m s -V 4 -q 2 -lowpass 17 -b 128

    Скриншот c названием фильма


    Download .torrent

    Download free and at maximum speed!

    How to Download? · What is a torrent? · Ratings and Limitations

    The site does not extend and does not store electronic(digital) versions of products, and only gives access to a reference catalogue created by users on torrent-files which contain only lists of the hash-sums, the earnest entreaty, with complaints(abuse) to access directly to the user. Files for an exchange on tracker are given by users of a site, and the administration does not bear the responsibility for their maintenance. The request to not fill in the files protected by copyrights, and also files of the illegal maintenance!

    [Profile] [PM]
    Display posts from previous:    
    Reply to topic

    The time now is: Today 04:50

    All times are GMT + 3 Hours

    You cannot post new topics in this forum
    You cannot reply to topics in this forum
    You cannot edit your posts in this forum
    You cannot delete your posts in this forum
    You cannot vote in polls in this forum
    You cannot attach files in this forum
    You cannot download files in this forum