BitTorrentTracker PerecTracker.org
BitTorrentTracker PerecTracker.org
    
Регистрация  ·  Вход
 
 · 
Забыли пароль?

  • Я люблю тебя, мой мужчина / Seni Seviyorum Adamım (Бирай Далкыран / Biray Dalkıran) [2014, Турция, Мелодрама, драма, WEB-DLRip] VO (Ирина Котова)

    Ответить на тему
     
    Автор Сообщение

    Light

    Создавать темы 21-Июн-2015 01:06

           

    [Цитировать]

    Я люблю тебя, мой мужчина / Seni Seviyorum Adamım
    Страна: Турция, VTR production
    Жанр: Мелодрама, драма
    Год выпуска: 2014
    Продолжительность: 01:34:25
    Перевод: Одноголосый закадровый (Ирина Котова)
    Cубтитры: нет
    Оригинальная аудиодорожка: нет
    Режиссер: Бирай Далкыран / Biray Dalkıran
    В ролях: Гизем Караджа, Барыш Кылыч, Серхат Озджан, Асуман Дабак, Орчун Картан, Эмре Коч, Аслы Омаг, Аслы Банкоглу, Мурат Серезли, Хакан Тюркшен, Гёкче Суйабатмаз, Джемре Бурджу Тосун, Кемаль Эрек, Гёркем Йелтан, Кубилай Гюлечоглу, Эрол Рефикоглу, Йылдыз Кюльтюр, Айшен Груда
    Описание: Прошло более 10 лет, как Берк Атаган, достаточно известный музыкальный продюсер, оставил свою работу и погрузился один на один со своим одиночеством, переехав со Стамбула на Кипр. Его устоявшийся покой и однотонно текущая жизнь на острове, однажды были нарушены. В его жизни появилась Эзель - это девушка-приключение, беспардонная и взбалмошная. Она ворвалась в его жизнь и каждый день рядом с ней становился для Берка - незабываемым. Берк старается начать все сначала, приезжает в Стамбул на встречу со своими друзьями, когда выясняется, что у Эзель прекрасный голос и она может стать новой звездой в артистическом мире музыкального Бомонда. Но пути Господни неисповедимы... и мы не знаем в какой момент прервётся наш путь. Перед зрителями происходит история настолько лиричная, что захочется украдкой всплакнуть.
    Доп. информация: Релиз - shachter58, перевод на русский язык - Эльвин Аскеров, озвучивание - Ирина Котова.
    Сэмпл: http://multi-up.com/1054624
    Качество видео: WEB-DLRip
    Формат видео: AVI
    Видео: MPEG-4 Visual, XviD, 720x384 (1.85:1), 1 753 Kbps, 25.000 fps, Bits/(Pixel*Frame): 0.254
    Аудио: MPEG Audio, MP3, 2 ch, 44.1 KHz, 192 Kbps - Русский

    MediaInfo

    General
    Complete name: I:\КИНО ТУРЦИИ\Ya.lublu.tebya.moy.muzchina.2014.L1.russ.Kotova.WEB-DLRip.avi
    Format : AVI
    Format/Info : Audio Video Interleave
    File size : 1.29 GiB
    Duration : 1h 34mn
    Overall bit rate : 1 954 Kbps
    Video
    ID : 0
    Format : MPEG-4 Visual
    Format profile : Advanced Simple@L5
    Format settings, BVOP : Yes
    Format settings, QPel : No
    Format settings, GMC : No warppoints
    Format settings, Matrix : Default (H.263)
    Codec ID : XVID
    Codec ID/Hint : XviD
    Duration : 1h 34mn
    Bit rate : 1 753 Kbps
    Width : 720 pixels
    Height : 384 pixels
    Display aspect ratio : 1.85:1
    Frame rate : 25.000 fps
    Color space : YUV
    Chroma subsampling : 4:2:0
    Bit depth : 8 bits
    Scan type : Progressive
    Compression mode : Lossy
    Bits/(Pixel*Frame) : 0.254
    Stream size : 1.16 GiB (90%)
    Writing library : XviD 63
    Audio
    ID : 1
    Format : MPEG Audio
    Format version : Version 1
    Format profile : Layer 3
    Codec ID : 55
    Codec ID/Hint : MP3
    Duration : 1h 34mn
    Bit rate mode : Constant
    Bit rate : 192 Kbps
    Channel(s) : 2 channels
    Sampling rate : 44.1 KHz
    Compression mode : Lossy
    Stream size : 130 MiB (10%)
    Alignment : Split accross interleaves
    Interleave, duration : 40 ms (1.00 video frame)
    Interleave, preload duration : 500 ms
    Writing library : LAME3.98r
    Encoding settings : -m s -V 4 -q 3 -lowpass 18.6 -b 192

    Скриншот c названием фильма

    Скриншоты




    Скачать .torrent

    Скачать торрент-файл бесплатно и на максимальной скорости!

    Как скачивать? · Что такое торрент? · Рейтинг и ограничения

    !ВНИМАНИЕ!
    Сайт не распространяет и не хранит электронные версии произведений, а занимается лишь лишь предоставлением доступа к создаваемому пользователями каталогу ссылок на торрент-файлы, которые содержат только списки хеш-сумм, убедительная просьба с жалобами обращаться напрямую к пользователю. Файлы для обмена на трекере предоставлены пользователями сайта, и администрация не несёт ответственности за их содержание. Просьба не заливать файлы, защищенные авторскими правами, а также файлы нелегального содержания!


    _________________
    [Профиль] [ЛС]
    Показать сообщения:    
    Ответить на тему

    Текущее время: Сегодня, в 14:16

    Часовой пояс: GMT + 2



    Вы не можете начинать темы
    Вы не можете отвечать на сообщения
    Вы не можете редактировать свои сообщения
    Вы не можете удалять свои сообщения
    Вы не можете голосовать в опросах
    Вы не можете прикреплять файлы к сообщениям
    Вы не можете скачивать файлы