BitTorrentTracker PerecTracker.org
BitTorrentTracker PerecTracker.org
    
Регистрация  ·  Вход
 
 · 
Забыли пароль?

  • И на Тихом океане... (Юрий Чулюкин) [1973 г., Историко-революционная драма, SATRip]

    Ответить на тему
     
    Автор Сообщение

    Light

    Создавать темы 20-Июн-2015 20:54

           

    [Цитировать]

    И на Тихом океане...Год выпуска: 1973.
    Жанр: Историко-революционная драма.
    Продолжительность: 01:32:23.
    Режиссер: Юрий Чулюкин.
    В ролях:
    Анатолий Кузнецов, Виктор Авдюшко, Любовь Соколова, Виктор Филиппов, Лев Поляков, Сергей Мартынов, Александр Смирнов, Владимир Уан-Зо-Ли, Никита Подгорный, Евгений Шутов, Сергей Курилов, Дмитрий Масанов, Кира Головко, Валентина Титова, Сергей Голованов, Владимир Басов, Р. Арженников, Виктор Колпаков, Даниил Нетребин, Евгений Райков, А. Мирошников, Иван Савкин, Галина Микеладзе, Дмитрий Орловский, Георгий Николаенко, Владимир Пицек.
    Описание:
    Широкоформатный фильм. По мотивам пьесы Всеволода Иванова "Бронепоезд 14-69".
    Последние дни гражданской войны. Оттесненные Красной Армией к Тихому океану, белогвардейские войска пытаются удержаться у власти. Свои надежды они возлагают на бронепоезд, который доставит им боеприпасы...

    Доп. информация:
    Страна: СССР .
    Киностудия: Мосфильм.
    Премьера: 14 января 1974 года.
    Авторы сценария: Александр Горохов, Юрий Чулюкин, Тамара Иванова.
    Операторы: Герман Шатров, Роберт Рувинов.
    Композитор: Оскар Фельцман.
    Художники: Николай Маркин, Борис Царёв.

    Еще постеры

    Рип с этой раздачи.
    Большое спасибо и Cheef mate за предоставленый материал для рипа!!!

    Качество: SATRip
    Формат: AVI
    Видео: 640x304 (2.11:1), 25 fps, XviD build 73 ~1000 kbps avg, 0.20 bit/pixel
    Аудио: 48 kHz, MPEG Layer 3, 2 ch, ~128.00 kbps avg

    Отчет MI

    General
    Complete name : I.na.Tihom.okeane.1973.XviD.SATRip_752.avi
    Format : AVI
    Format/Info : Audio Video Interleave
    File size : 752 MiB
    Duration : 1h 32mn
    Overall bit rate : 1 138 Kbps
    Writing application : VirtualDubMod 1.5.10.3 | www.virtualdub-fr.org || (build 2550/release)
    Writing library : VirtualDubMod build 2550/release
    Video
    ID : 0
    Format : MPEG-4 Visual
    Format profile : Advanced Simple@L5
    Format settings, BVOP : 2
    Format settings, QPel : No
    Format settings, GMC : No warppoints
    Format settings, Matrix : Custom
    Codec ID : XVID
    Codec ID/Hint : XviD
    Duration : 1h 32mn
    Bit rate : 1 001 Kbps
    Width : 640 pixels
    Height : 304 pixels
    Display aspect ratio : 2.105
    Frame rate : 25.000 fps
    Color space : YUV
    Chroma subsampling : 4:2:0
    Bit depth : 8 bits
    Scan type : Progressive
    Compression mode : Lossy
    Bits/(Pixel*Frame) : 0.206
    Stream size : 661 MiB (88%)
    Writing library : XviD 73
    Audio
    ID : 1
    Format : MPEG Audio
    Format version : Version 1
    Format profile : Layer 3
    Codec ID : 55
    Codec ID/Hint : MP3
    Duration : 1h 32mn
    Bit rate mode : Constant
    Bit rate : 128 Kbps
    Channel(s) : 2 channels
    Sampling rate : 48.0 KHz
    Compression mode : Lossy
    Stream size : 84.6 MiB (11%)
    Alignment : Aligned on interleaves
    Interleave, duration : 40 ms (1.00 video frame)
    Interleave, preload duratio : 504 ms
    Writing library : LAME3.99r
    Encoding settings : -m s -V 4 -q 2 -lowpass 17 -b 128

    Скриншоты

    Альтернативный хост

    Скачать .torrent

    Скачать торрент-файл бесплатно и на максимальной скорости!

    Как скачивать? · Что такое торрент? · Рейтинг и ограничения

    !ВНИМАНИЕ!
    Сайт не распространяет и не хранит электронные версии произведений, а занимается лишь лишь предоставлением доступа к создаваемому пользователями каталогу ссылок на торрент-файлы, которые содержат только списки хеш-сумм, убедительная просьба с жалобами обращаться напрямую к пользователю. Файлы для обмена на трекере предоставлены пользователями сайта, и администрация не несёт ответственности за их содержание. Просьба не заливать файлы, защищенные авторскими правами, а также файлы нелегального содержания!


    _________________
    [Профиль] [ЛС]
    Показать сообщения:    
    Ответить на тему

    Текущее время: Сегодня, в 12:44

    Часовой пояс: GMT + 2



    Вы не можете начинать темы
    Вы не можете отвечать на сообщения
    Вы не можете редактировать свои сообщения
    Вы не можете удалять свои сообщения
    Вы не можете голосовать в опросах
    Вы не можете прикреплять файлы к сообщениям
    Вы не можете скачивать файлы