BitTorrentTracker PerecTracker.org
BitTorrentTracker PerecTracker.org
    
Регистрация  ·  Вход
 
 · 
Забыли пароль?

  • Несносный Генри / Иисус Генри Христос / Jesus Henry Christ (Деннис Ли / Dennis Lee) [2012, США, комедия, HDRip] MVO (Новый Диск) + Original Eng

    Ответить на тему
     
    Автор Сообщение

    Light

    Создавать темы 20-Июн-2015 20:54

           

    [Цитировать]

    Несносный Генри / Иисус Генри Христос / Jesus Henry Christ
    Страна: США
    Жанр: комедия
    Год выпуска: 2012
    Продолжительность: 01:34:47
    Перевод: Профессиональный (многоголосый закадровый) Новый Диск/НТВ+/Кинопоказ
    Cубтитры: нет
    Оригинальная аудиодорожка: английский
    Режиссер: Деннис Ли / Dennis Lee
    В ролях: Тони Коллетт / Toni Collette (Patricia Herman), Майкл Шин / Michael Sheen (Dr. Slavkin O'Hara), Джейсон Спивак / Jason Spevack (Henry James Herman), Джейми Джонсон / Jamie Johnston (Young Billy Herman), Остин Макдональд / Austin Macdonald (Brian the Bully), Кэмерон Кеннеди / Cameron Kennedy (Jimmy Herman), Деван Коэн / Devan Cohen (Young Henry Herman), Саманта Вайнштейн / Samantha Weinstein (Audrey O'Hara), Опра Уинфри / Oprah Winfrey (Oprah)
    Описание: Отношения 10-летнего Генри с матерью далеки от идеальных. Укоры, обиды, ссоры. Мальчик решает отправиться на поиски своего биологического отца. Он готов к трудностям и приключениям, которые могут встретиться на его пути… (анонс канала "Премьера")
    Сэмпл: http://multi-up.com/1054620
    Качество видео: HDRip
    Формат видео: AVI
    Видео: MPEG4, XviD, 720x304 (2.35:1), 23.976 fps, 1 539 Kbps (0.293 bit/pixel)
    Аудио: AC-3, 48.0 KHz, 2 ch, 192 Kbps, CBR - русский
    Аудио 2: AC-3, 48.0 KHz, 6 ch, 448 Kbps, CBR - английский

    MediaInfo

    Общее
    Полное имя : K:\Несносный Генри.avi
    Формат : AVI
    Формат/Информация : Audio Video Interleave
    Размер файла : 1,45 Гбайт
    Продолжительность : 1 ч. 34 м.
    Общий поток : 2193 Кбит/сек
    Название фильма : Несносный Генри / Иисус Генри Христос / Jesus Henry Christ (2012)
    Программа кодирования : VirtualDubMod 1.5.10.2 (build 2540/release)
    Библиотека кодирования : VirtualDubMod build 2540/release
    Правообладатель : miha2154
    Видео
    Идентификатор : 0
    Формат : MPEG-4 Visual
    Профиль формата : Advanced Simple@L5
    Параметр BVOP формата : 1
    Параметр QPel формата : Нет
    Параметр GMC формата : Без точки перехода
    Параметр матрицы формата : Выборочная
    Идентификатор кодека : XVID
    Идентификатор кодека/Подсказка : XviD
    Продолжительность : 1 ч. 34 м.
    Битрейт : 1539 Кбит/сек
    Ширина : 720 пикселей
    Высота : 304 пикселя
    Соотношение сторон : 2,35:1
    Частота кадров : 23,976 кадра/сек
    Цветовое пространство : YUV
    Субдискретизация насыщенности : 4:2:0
    Битовая глубина : 8 бит
    Тип развёртки : Прогрессивная
    Метод сжатия : С потерями
    Бит/(Пиксели*Кадры) : 0.293
    Размер потока : 1,02 Гбайт (70%)
    Библиотека кодирования : XviD 65
    Аудио #1
    Идентификатор : 1
    Формат : AC-3
    Формат/Информация : Audio Coding 3
    Расширение режима : CM (complete main)
    Параметр Endianness формата : Big
    Идентификатор кодека : 2000
    Продолжительность : 1 ч. 34 м.
    Вид битрейта : Постоянный
    Битрейт : 192 Кбит/сек
    Каналы : 2 канала
    Расположение каналов : Front: L R
    Частота : 48,0 КГц
    Битовая глубина : 16 бит
    Метод сжатия : С потерями
    Размер потока : 130 Мбайт (9%)
    Выравнивание : Разделение по промежуткам
    Продолжительность промежутка : 42 мс. (1,00 видеокадр)
    Время предзагрузки промежутка : 500 мс.
    Заголовок : Профессиональный (многоголосый закадровый) Новый Диск
    Аудио #2
    Идентификатор : 2
    Формат : AC-3
    Формат/Информация : Audio Coding 3
    Расширение режима : CM (complete main)
    Параметр Endianness формата : Big
    Идентификатор кодека : 2000
    Продолжительность : 1 ч. 34 м.
    Вид битрейта : Постоянный
    Битрейт : 448 Кбит/сек
    Каналы : 6 каналов
    Расположение каналов : Front: L C R, Side: L R, LFE
    Частота : 48,0 КГц
    Битовая глубина : 16 бит
    Метод сжатия : С потерями
    Размер потока : 304 Мбайт (20%)
    Выравнивание : Разделение по промежуткам
    Продолжительность промежутка : 42 мс. (1,00 видеокадр)
    Время предзагрузки промежутка : 500 мс.
    Заголовок : Английский

    Скриншоты




    Скачать .torrent

    Скачать торрент-файл бесплатно и на максимальной скорости!

    Как скачивать? · Что такое торрент? · Рейтинг и ограничения

    !ВНИМАНИЕ!
    Сайт не распространяет и не хранит электронные версии произведений, а занимается лишь лишь предоставлением доступа к создаваемому пользователями каталогу ссылок на торрент-файлы, которые содержат только списки хеш-сумм, убедительная просьба с жалобами обращаться напрямую к пользователю. Файлы для обмена на трекере предоставлены пользователями сайта, и администрация не несёт ответственности за их содержание. Просьба не заливать файлы, защищенные авторскими правами, а также файлы нелегального содержания!


    _________________
    [Профиль] [ЛС]
    Показать сообщения:    
    Ответить на тему

    Текущее время: Сегодня, в 11:39

    Часовой пояс: GMT + 2



    Вы не можете начинать темы
    Вы не можете отвечать на сообщения
    Вы не можете редактировать свои сообщения
    Вы не можете удалять свои сообщения
    Вы не можете голосовать в опросах
    Вы не можете прикреплять файлы к сообщениям
    Вы не можете скачивать файлы