BitTorrentTracker PerecTracker.org
BitTorrentTracker PerecTracker.org
    
Регистрация  ·  Вход
 
 · 
Забыли пароль?

  • Рейд 2 / The Raid 2: Berandal (Гарет Эванс / Gareth Evans) [2014, Индонезия, США, боевик, триллер, криминал, HDRip] Dub

    Ответить на тему
     
    Автор Сообщение

    Light

    Создавать темы 20-Июн-2015 12:30

           

    [Цитировать]

    Рейд 2 / The Raid 2: Berandal
    Страна: Индонезия, США
    Жанр: боевик, триллер, криминал
    Год выпуска: 2014
    Продолжительность: 02:30:28
    Перевод: Профессиональный (дублированный)
    Cубтитры: нет
    Режиссер: Гарет Эванс / Gareth Evans
    В ролях: Ико Уайс (Rama), Арифин Путра (Uco), Тио Пакусодево (Bangun), Ока Антара (Eka), Алекс Аббад (Bejo), Чечеп Ариф Рахман (The Assassin), Джулия Эстелл (Alicia «Hammer Girl»), Вери Три Юлисман (Baseball Bat Man), Рюхэй Мацуда (Keichi), Кэнити Эндо (Hideaki Goto), Кадзуки Китамура (Ryuichi), Яян Рухьян (Prakoso)
    : Из трех полицейских, выбравшихся из кровавого ада первой части, в живых остается только офицер Рама. Уволившись из спецназа, он пробует начать жизнь заново, но вскоре прошлое жестко напоминает о себе - преступники убивают его брата. Чтобы отомстить, он внедряется в мощный криминальный синдикат, где быстро поднимается до самых вершин бандитской иерархии. Врагов здесь еще больше, и каждый неверный шаг может оказаться последним. Здесь нет ни близких, ни друзей, ни любви, ни тоски, ни жалости!
    Сэмпл / Кинопоиск
    Качество видео: HDRip
    Формат видео: AVI
    Видео: MPEG-4 1201 Кбит/сек 720 x 304 (2.368) at 23.976 fps
    Аудио: AC-3 192 Кбит/сек 2 канала, 48,0 КГц

    MediaInfo

    Формат : AVI
    Формат/Информация : Audio Video Interleave
    Размер файла : 1,47 Гбайт
    Продолжительность : 2 ч. 30 м.
    Общий поток : 1402 Кбит/сек
    Название фильма : Rejd.2.2014.D.BDRip.1.46Gb_MegaPeer_by_Twi7ter
    Режиссёр : Twi7ter
    Жанр : Action/Thriller/Crime
    Программа кодирования : VirtualDubMod 1.5.10.3 (build 2550/release)
    Формат оригинала/Имя : Movie
    Видео
    Идентификатор : 0
    Формат : MPEG-4 Visual
    Профиль формата : Advanced Simple@L5
    Параметр BVOP формата : 2
    Параметр QPel формата : Нет
    Параметр GMC формата : Без точки перехода
    Параметр матрицы формата : Выборочная
    Идентификатор кодека : XVID
    Идентификатор кодека/Подсказка : XviD
    Продолжительность : 2 ч. 30 м.
    Битрейт : 1201 Кбит/сек
    Ширина : 720 пикселей
    Высота : 304 пикселя
    Соотношение сторон : 2,35:1
    Частота кадров : 23,976 кадра/сек
    Цветовое пространство : YUV
    Субдискретизация насыщенности : 4:2:0
    Битовая глубина : 8 бит
    Тип развёртки : Прогрессивная
    Метод сжатия : С потерями
    Бит/(Пиксели*Кадры) : 0.229
    Размер потока : 1,26 Гбайт (86%)
    Библиотека кодирования : XviD 73
    Аудио
    Идентификатор : 1
    Формат : AC-3
    Формат/Информация : Audio Coding 3
    Расширение режима : CM (complete main)
    Параметр Endianness формата : Big
    Идентификатор кодека : 2000
    Продолжительность : 2 ч. 30 м.
    Вид битрейта : Постоянный
    Битрейт : 192 Кбит/сек
    Каналы : 2 канала
    Расположение каналов : Front: L R
    Частота : 48,0 КГц
    Битовая глубина : 16 бит
    Метод сжатия : С потерями
    Размер потока : 207 Мбайт (14%)
    Выравнивание : Разделение по промежуткам
    Продолжительность промежутка : 42 мс. (1,00 видеокадр)
    Время предзагрузки промежутка : 500 мс.

    Скриншот c названием фильма

    Скриншоты

    Скачать .torrent

    Скачать торрент-файл бесплатно и на максимальной скорости!

    Как скачивать? · Что такое торрент? · Рейтинг и ограничения

    !ВНИМАНИЕ!
    Сайт не распространяет и не хранит электронные версии произведений, а занимается лишь лишь предоставлением доступа к создаваемому пользователями каталогу ссылок на торрент-файлы, которые содержат только списки хеш-сумм, убедительная просьба с жалобами обращаться напрямую к пользователю. Файлы для обмена на трекере предоставлены пользователями сайта, и администрация не несёт ответственности за их содержание. Просьба не заливать файлы, защищенные авторскими правами, а также файлы нелегального содержания!


    _________________
    [Профиль] [ЛС]
    Показать сообщения:    
    Ответить на тему

    Текущее время: Сегодня, в 18:55

    Часовой пояс: GMT + 2



    Вы не можете начинать темы
    Вы не можете отвечать на сообщения
    Вы не можете редактировать свои сообщения
    Вы не можете удалять свои сообщения
    Вы не можете голосовать в опросах
    Вы не можете прикреплять файлы к сообщениям
    Вы не можете скачивать файлы