Register  ·  Log in
Forgot password?

  • Медленный Запад / Slow West (Джон Маклин / John Maclean) [2015, Великобритания, боевик, триллер, вестерн, HDRip] DVO + Original Eng

    Reply to topic
    Author Message


    Post 20-Jun-2015 00:54



    Медленный Запад / Slow West
    Страна: Великобритания
    Жанр: боевик, триллер, вестерн
    Год выпуска: 2015
    Продолжительность: 01:24:24
    Перевод: Любительский (двухголосый закадровый)

    Cубтитры: нет

    Режиссер: Джон Маклин / John Maclean
    В ролях: Майкл Фассбендер, Бен Мендельсон, Коди Смит-МакФи, Рори МакКанн, Брук Уильямс, Карен Писториус, Алекс МакКуин, Энди МакФи, Джеффри Томас, Калани Кейпо
    Описание: Авантюрист средних лет ведет молодого выходца из Шотландии на Запад, куда тот отправился на поиски возлюбленной, по следу которой идут еще и охотники за головами. Классика жанра c непредсказуемым завершением, описать которое в одном предложении было бы кощунством.
    Доп. информация: (7.1)
    Качество видео: HDRip
    Формат видео: AVI
    Видео: XviD, 2123 kb/s, 720x432, 23.976 fps
    Аудио: Русский, MP3, 192 kb/s (2 ch)


    Complete name : E:\Slow.West.L2.2015.HDRip.avi
    Format : AVI
    Format/Info : Audio Video Interleave
    File size : 1.37 GiB
    Duration : 1h 24mn
    Overall bit rate : 2 321 Kbps
    Writing application : VirtualDubMod (build 2540/release)
    Writing library : VirtualDubMod build 2540/release
    ID : 0
    Format : MPEG-4 Visual
    Format profile : Advanced Simple@L5
    Format settings, BVOP : 4
    Format settings, QPel : No
    Format settings, GMC : 3 warppoints
    Format settings, Matrix : Default (MPEG)
    Codec ID : XVID
    Codec ID/Hint : XviD
    Duration : 1h 24mn
    Bit rate : 2 120 Kbps
    Width : 720 pixels
    Height : 432 pixels
    Display aspect ratio : 5:3
    Frame rate : 23.976 fps
    Color space : YUV
    Chroma subsampling : 4:2:0
    Bit depth : 8 bits
    Scan type : Progressive
    Compression mode : Lossy
    Bits/(Pixel*Frame) : 0.284
    Stream size : 1.25 GiB (91%)
    Writing library : XviD 1.2.1 (UTC 2008-12-04)
    ID : 1
    Format : MPEG Audio
    Format version : Version 1
    Format profile : Layer 3
    Mode : Joint stereo
    Codec ID : 55
    Codec ID/Hint : MP3
    Duration : 1h 24mn
    Bit rate mode : Constant
    Bit rate : 192 Kbps
    Channel(s) : 2 channels
    Sampling rate : 48.0 KHz
    Compression mode : Lossy
    Stream size : 116 MiB (8%)
    Alignment : Aligned on interleaves
    Interleave, duration : 42 ms (1.00 video frame)
    Interleave, preload duration : 504 ms
    Writing library : LAME3.99.5

    Скриншот c названием фильма


    Download .torrent

    Download free and at maximum speed!

    How to Download? · What is a torrent? · Ratings and Limitations

    The site does not extend and does not store electronic(digital) versions of products, and only gives access to a reference catalogue created by users on torrent-files which contain only lists of the hash-sums, the earnest entreaty, with complaints(abuse) to access directly to the user. Files for an exchange on tracker are given by users of a site, and the administration does not bear the responsibility for their maintenance. The request to not fill in the files protected by copyrights, and also files of the illegal maintenance!

    [Profile] [PM]
    Display posts from previous:    
    Reply to topic

    The time now is: Today 02:16

    All times are GMT + 3 Hours

    You cannot post new topics in this forum
    You cannot reply to topics in this forum
    You cannot edit your posts in this forum
    You cannot delete your posts in this forum
    You cannot vote in polls in this forum
    You cannot attach files in this forum
    You cannot download files in this forum