BitTorrentTracker PerecTracker.org
BitTorrentTracker PerecTracker.org
    
Регистрация  ·  Вход
 
 · 
Забыли пароль?

  • Медленный Запад / Slow West (Джон Маклин / John Maclean) [2015, Великобритания, боевик, триллер, вестерн, HDRip] DVO + Original Eng

    Ответить на тему
     
    Автор Сообщение

    rechyn

    Создавать темы 19-Июн-2015 23:54

           

    [Цитировать]

    Медленный Запад / Slow West
    Страна: Великобритания
    Жанр: боевик, триллер, вестерн
    Год выпуска: 2015
    Продолжительность: 01:24:24
    Перевод: Любительский (двухголосый закадровый)

    Cубтитры: нет

    Режиссер: Джон Маклин / John Maclean
    В ролях: Майкл Фассбендер, Бен Мендельсон, Коди Смит-МакФи, Рори МакКанн, Брук Уильямс, Карен Писториус, Алекс МакКуин, Энди МакФи, Джеффри Томас, Калани Кейпо
    Описание: Авантюрист средних лет ведет молодого выходца из Шотландии на Запад, куда тот отправился на поиски возлюбленной, по следу которой идут еще и охотники за головами. Классика жанра c непредсказуемым завершением, описать которое в одном предложении было бы кощунством.
    Доп. информация: (7.1)
    (6.6)
    Сэмпл: http://sendfile.su/1129618
    Качество видео: HDRip
    Формат видео: AVI
    Видео: XviD, 2123 kb/s, 720x432, 23.976 fps
    Аудио: Русский, MP3, 192 kb/s (2 ch)

    MediaInfo

    General
    Complete name : E:\Slow.West.L2.2015.HDRip.avi
    Format : AVI
    Format/Info : Audio Video Interleave
    File size : 1.37 GiB
    Duration : 1h 24mn
    Overall bit rate : 2 321 Kbps
    Writing application : VirtualDubMod 1.5.10.2 (build 2540/release)
    Writing library : VirtualDubMod build 2540/release
    Video
    ID : 0
    Format : MPEG-4 Visual
    Format profile : Advanced Simple@L5
    Format settings, BVOP : 4
    Format settings, QPel : No
    Format settings, GMC : 3 warppoints
    Format settings, Matrix : Default (MPEG)
    Codec ID : XVID
    Codec ID/Hint : XviD
    Duration : 1h 24mn
    Bit rate : 2 120 Kbps
    Width : 720 pixels
    Height : 432 pixels
    Display aspect ratio : 5:3
    Frame rate : 23.976 fps
    Color space : YUV
    Chroma subsampling : 4:2:0
    Bit depth : 8 bits
    Scan type : Progressive
    Compression mode : Lossy
    Bits/(Pixel*Frame) : 0.284
    Stream size : 1.25 GiB (91%)
    Writing library : XviD 1.2.1 (UTC 2008-12-04)
    Audio
    ID : 1
    Format : MPEG Audio
    Format version : Version 1
    Format profile : Layer 3
    Mode : Joint stereo
    Codec ID : 55
    Codec ID/Hint : MP3
    Duration : 1h 24mn
    Bit rate mode : Constant
    Bit rate : 192 Kbps
    Channel(s) : 2 channels
    Sampling rate : 48.0 KHz
    Compression mode : Lossy
    Stream size : 116 MiB (8%)
    Alignment : Aligned on interleaves
    Interleave, duration : 42 ms (1.00 video frame)
    Interleave, preload duration : 504 ms
    Writing library : LAME3.99.5

    Скриншот c названием фильма

    Скриншоты









    Скачать .torrent

    Скачать торрент-файл бесплатно и на максимальной скорости!

    Как скачивать? · Что такое торрент? · Рейтинг и ограничения

    !ВНИМАНИЕ!
    Сайт не распространяет и не хранит электронные версии произведений, а занимается лишь лишь предоставлением доступа к создаваемому пользователями каталогу ссылок на торрент-файлы, которые содержат только списки хеш-сумм, убедительная просьба с жалобами обращаться напрямую к пользователю. Файлы для обмена на трекере предоставлены пользователями сайта, и администрация не несёт ответственности за их содержание. Просьба не заливать файлы, защищенные авторскими правами, а также файлы нелегального содержания!


    _________________
    [Профиль] [ЛС]
    Показать сообщения:    
    Ответить на тему

    Текущее время: Сегодня, в 07:58

    Часовой пояс: GMT + 2



    Вы не можете начинать темы
    Вы не можете отвечать на сообщения
    Вы не можете редактировать свои сообщения
    Вы не можете удалять свои сообщения
    Вы не можете голосовать в опросах
    Вы не можете прикреплять файлы к сообщениям
    Вы не можете скачивать файлы