BitTorrentTracker PerecTracker.org
BitTorrentTracker PerecTracker.org
    
Регистрация  ·  Вход
 
 · 
Забыли пароль?

  • [ATV3] Добро пожаловать в рай / Vice (Брайан А Миллер / Brian A Miller ) [2014, США, Фантастика, боевик, триллер, BDRip, HD (1080p)] DUB + Original + sub (rus, eng)

    Ответить на тему
     
    Автор Сообщение

    rechyn

    Создавать темы 19-Июн-2015 15:30

           

    [Цитировать]

    Добро пожаловать в рай / Vice
    «Самый смертельный порок это месть»
    4.382 / 10 4.10 / 10
    -Год выпуска: 2014
    Страна: США
    Жанр: Фантастика, боевик, триллер
    Продолжительность: 01:36:24
    Перевод: Дублированный (BlueBird)
    Оригинальная аудиодорожка: Есть
    Cубтитры: Русские, Английские, Английские SDH
    Режиссёр: Брайан А Миллер
    Сценарий: Андре Фабрицио, Джереми Пассмор
    Продюсер: Рэндолл Эмметт, Джордж Фурла, Адам Голдворм
    Оператор: Ярон Леви
    Композитор: Хайбрид
    Художник: Нат Джонс, Мишель Джонс, Бонни Штаух
    Монтаж: Пол Харб, Рик Шэйн
    В ролях: Эмбир Чилдерс, Томас Джейн, Брайан Гринберг, Брюс Уиллис, Джонатон Шек, Шарлотта Кирк, Бретт Гранстафф, Райан О’Нан, Дэвид Гордон, Колин Эглсфилд
    Бюджет: $10 000 000
    Сборы в России: $170 409
    Мировая премьера: 12 января 2015
    Премьера (РФ): 16 апреля 2015, «Наше Кино»
    Описание: Действие происходит в относительно недалеком будущем, когда для богачей создан специальный город-курорт, основные обитатели которых и обслуга — андроиды. Туристы за соответствующую цену могут осуществить здесь самые безумные свои фантазии, а андроиды, пострадавшие от рук людей, направляются на перезагрузку памяти. Но однажды случается сбой, и женщина-андроид обретает память о всех кошмарах, которым богатые извращенцы подвергали ее и остальных искусственных людей. И она решает отомстить…-Качество исходника: Blu-Ray (BlueBird)
    Качество: BDRip
    Тип: HD (1080p)
    Контейнер: M4V
    Видео: H.264, 1920x800, 2.40:1, 8 000 Kbps, 23.976 fps
    Аудио 1: Русский/Дублированный (BlueBird), AAC / 2.0 / 157 Kbps / 48.0 KHz
    Аудио 2: Английский/Оригинальная дорожка , AAC / 2.0 / 158 Kbps / 48.0 KHz
    Аудио 3: Русский/Дублированный (BlueBird), AC-3 / 5.1 / 640 Kbps / 48.0 KHz
    Аудио 4: Английский/Оригинальная дорожка , AC-3 / 5.1 / 640 Kbps / 48.0 KHz
    Субтитры 1: Русские полные
    Субтитры 2: Английские полные
    Субтитры 3: Английские SDH
    -

    iTunes Meta Tags

    Sort Name: Vice
    XID: Apple:vendor_id:2014-821048
    contentID: 950948734
    Copyright: © 2014 Georgia Film Fund Twenty-Eight, LLC. All Rights Reserved.
    Screenwriters: Андре Фабрицио, Джереми Пассмор
    Producers: Рэндолл Эмметт, Джордж Фурла, Адам Голдворм
    Director: Брайан А Миллер
    Cast: Эмбир Чилдерс, Томас Джейн, Брайан Гринберг, Брюс Уиллис, Джонатон Шек, Шарлотта Кирк, Бретт Гранстафф, Райан О’Нан, Дэвид Гордон, Колин Эглсфилд, Екатерина Тихомирова, Станислав Концевич, Андрей Лёвин, Валерий Кухарешин, Стас Войнич
    Studio: Lionsgate
    Rating: 11
    Long Description: Действие происходит в относительно недалеком будущем, когда для богачей создан специальный город-курорт, основные обитатели которых и обслуга - андроиды. Туристы за соответствующую цену могут осуществить здесь самые безумные свои фантазии, а андроиды, пострадавшие от рук людей, направляются на перезагрузку памяти. Но однажды случается сбой, и женщина-андроид обретает память о всех кошмарах, которым богатые извращенцы подвергали ее и остальных искусственных людей. И она решает отомстить...
    Description: Действие происходит в относительно недалеком будущем, когда для богачей создан специальный город-курорт, основные обитатели которых и обслуга - андроиды.
    Release Date: 2015-01-12T08:00:00Z
    Genre: Action & Adventure
    Artist: Brian A. Miller
    Name: Vice

    MediaInfo

    General
    Complete name                            : /Users/imac/HandBrake/Vice (1080p HD).m4v
    Format                                   : MPEG-4
    Codec ID                                 : M4V
    File size                                : 6.46 GiB
    Duration                                 : 1h 36mn
    Overall bit rate mode                    : Variable
    Overall bit rate                         : 9 598 Kbps
    Movie name                               : Vice
    Performer                                : Brian A. Miller
    Genre                                    : Action & Adventure
    Recorded date                            : UTC 2015-01-12 08:00:00
    Encoded date                             : UTC 2015-06-19 10:46:13
    Tagged date                              : UTC 2015-06-19 11:02:24
    Copyright                                : © 2014 Georgia Film Fund Twenty-Eight, LLC. All Rights Reserved.
    Cover                                    : Yes
    sonm                                     : Vice
    desc                                     : Действие происходит в относительно недалеком будущем, когда для богачей создан специальный город-курорт, основные обитатели которых и обслуга - андроиды.
    ldes                                     : Действие происходит в относительно недалеком будущем, когда для богачей создан специальный город-курорт, основные обитатели которых и обслуга - андроиды. Туристы за соответствующую цену могут осуществить здесь самые безумные свои фантазии, а андроиды, пострадавшие от рук людей, направляются на перезагрузку памяти. Но однажды случается сбой, и женщина-андроид обретает память о всех кошмарах, которым богатые извращенцы подвергали ее и остальных искусственных людей. И она решает отомстить...
    hdvd                                     : 2
    stik                                     : 9
    rtng                                     : 0
    cnID                                     : 950948734
    xid                                      : Apple:vendor_id:2014-821048
    iTunEXTC                                 : mpaa|R|400|
    iTunMOVI                                 : <?xml version=\"1.0\" encoding=\"UTF-8\"?> / <!DOCTYPE plist PUBLIC \"-//Apple//DTD PLIST 1.0//EN\" \"http://anonym.to/?http://www.apple.com/DTDs/PropertyList-1.0.dtd\"> / <plist version=\"1.0\"> / <dict> /  <key>cast</key> /  <array> /   <dict> /    <key>name</key> /    <string>Эмбир Чилдерс</string> /   </dict> /   <dict> /    <key>name</key> /    <string>Томас Джейн</string> /   </dict> /   <dict> /    <key>name</key> /    <string>Брайан Гринберг</string> /   </dict> /   <dict> /    <key>name</key> /    <string>Брюс Уиллис</string> /   </dict> /   <dict> /    <key>name</key> /    <string>Джонатон Шек</string> /   </dict> /   <dict> /    <key>name</key> /    <string>Шарлотта Кирк</string> /   </dict> /   <dict> /    <key>name</key> /    <string>Бретт Гранстафф</string> /   </dict> /   <dict> /    <key>name</key> /    <string>Райан О’Нан</string> /   </dict> /   <dict> /    <key>name</key> /    <string>Дэвид Гордон</string> /   </dict> /   <dict> /    <key>name</key> /    <string>Колин Эглсфилд</string> /   </dict> /   <dict> /    <key>name</key> /    <string>Екатерина Тихомирова</string> /   </dict> /   <dict> /    <key>name</key> /    <string>Станислав Концевич</string> /   </dict> /   <dict> /    <key>name</key> /    <string>Андрей Лёвин</string> /   </dict> /   <dict> /    <key>name</key> /    <string>Валерий Кухарешин</string> /   </dict> /   <dict> /    <key>name</key> /    <string>Стас Войнич</string> /   </dict> /  </array> /  <key>directors</key> /  <array> /   <dict> /    <key>name</key> /    <string>Брайан А Миллер</string> /   </dict> /  </array> /  <key>producers</key> /  <array> /   <dict> /    <key>name</key> /    <string>Рэндолл Эмметт</string> /   </dict> /   <dict> /    <key>name</key> /    <string>Джордж Фурла</string> /   </dict> /   <dict> /    <key>name</key> /    <string>Адам Голдворм</string> /   </dict> /  </array> /  <key>screenwriters</key> /  <array> /   <dict> /    <key>name</key> /    <string>Андре Фабрицио</string> /   </dict> /   <dict> /    <key>name</key> /    <string>Джереми Пассмор</string> /   </dict> /  </array> /  <key>studio</key> /  <string>Lionsgate</string> / </dict> / </plist>
    Video #1
    ID                                       : 1
    Format                                   : AVC
    Format/Info                              : Advanced Video Codec
    Format profile                           : High@L4.0
    Format settings, CABAC                   : Yes
    Format settings, ReFrames                : 4 frames
    Codec ID                                 : avc1
    Codec ID/Info                            : Advanced Video Coding
    Duration                                 : 1h 36mn
    Bit rate mode                            : Variable
    Bit rate                                 : 8 000 Kbps
    Width                                    : 1 920 pixels
    Height                                   : 800 pixels
    Display aspect ratio                     : 2.40:1
    Frame rate mode                          : Variable
    Frame rate                               : 23.976 fps
    Minimum frame rate                       : 23.810 fps
    Maximum frame rate                       : 24.272 fps
    Color space                              : YUV
    Chroma subsampling                       : 4:2:0
    Bit depth                                : 8 bits
    Scan type                                : Progressive
    Bits/(Pixel*Frame)                       : 0.217
    Stream size                              : 5.38 GiB (83%)
    Writing library                          : x264 core 142 r2479 dd79a61
    Encoding settings                        : cabac=1 / ref=4 / deblock=1:-2:-2 / analyse=0x3:0x133 / me=umh / subme=10 / psy=1 / psy_rd=1.00:0.15 / mixed_ref=1 / me_range=32 / chroma_me=1 / trellis=2 / 8x8dct=1 / cqm=0 / deadzone=21,11 / fast_pskip=0 / chroma_qp_offset=-3 / threads=36 / lookahead_threads=6 / sliced_threads=0 / nr=0 / decimate=0 / interlaced=0 / bluray_compat=0 / constrained_intra=0 / bframes=16 / b_pyramid=2 / b_adapt=2 / b_bias=0 / direct=3 / weightb=1 / open_gop=0 / weightp=2 / keyint=240 / keyint_min=24 / scenecut=40 / intra_refresh=0 / rc_lookahead=60 / rc=2pass / mbtree=1 / bitrate=8000 / ratetol=1.0 / qcomp=0.70 / qpmin=0 / qpmax=69 / qpstep=4 / cplxblur=20.0 / qblur=0.5 / vbv_maxrate=25000 / vbv_bufsize=25000 / nal_hrd=none / filler=0 / ip_ratio=1.40 / aq=1:1.00
    Language                                 : English
    Encoded date                             : UTC 2015-06-19 10:46:13
    Tagged date                              : UTC 2015-06-19 10:46:32
    Color primaries                          : BT.709-5, BT.1361, IEC 61966-2-4, SMPTE RP177
    Transfer characteristics                 : BT.709-5, BT.1361
    Matrix coefficients                      : BT.709-5, BT.1361, IEC 61966-2-4 709, SMPTE RP177
    Video #2
    ID                                       : 10
    Format                                   : JPEG
    Codec ID                                 : jpeg
    Duration                                 : 1h 36mn
    Bit rate mode                            : Variable
    Bit rate                                 : 257 bps
    Width                                    : 640 pixels
    Height                                   : 266 pixels
    Display aspect ratio                     : 2.40:1
    Frame rate mode                          : Variable
    Frame rate                               : 0.001 fps
    Minimum frame rate                       : 0.001 fps
    Maximum frame rate                       : 0.004 fps
    Color space                              : YUV
    Chroma subsampling                       : 4:2:0
    Bit depth                                : 8 bits
    Compression mode                         : Lossy
    Bits/(Pixel*Frame)                       : 1.510
    Stream size                              : 251 KiB (0%)
    Language                                 : English
    Encoded date                             : UTC 2015-06-19 10:46:37
    Tagged date                              : UTC 2015-06-19 10:46:37
    Audio #1
    ID                                       : 2
    Format                                   : AAC
    Format/Info                              : Advanced Audio Codec
    Format profile                           : LC
    Codec ID                                 : 40
    Duration                                 : 1h 36mn
    Bit rate mode                            : Variable
    Bit rate                                 : 157 Kbps
    Maximum bit rate                         : 262 Kbps
    Channel(s)                               : 2 channels
    Channel positions                        : Front: L R
    Sampling rate                            : 48.0 KHz
    Compression mode                         : Lossy
    Stream size                              : 109 MiB (2%)
    Language                                 : Russian
    Encoded date                             : UTC 2015-06-19 10:46:13
    Tagged date                              : UTC 2015-06-19 10:46:33
    Audio #2
    ID                                       : 3
    Format                                   : AAC
    Format/Info                              : Advanced Audio Codec
    Format profile                           : LC
    Codec ID                                 : 40
    Duration                                 : 1h 36mn
    Bit rate mode                            : Variable
    Bit rate                                 : 158 Kbps
    Maximum bit rate                         : 247 Kbps
    Channel(s)                               : 2 channels
    Channel positions                        : Front: L R
    Sampling rate                            : 48.0 KHz
    Compression mode                         : Lossy
    Stream size                              : 109 MiB (2%)
    Language                                 : English
    Encoded date                             : UTC 2015-06-19 10:46:13
    Tagged date                              : UTC 2015-06-19 10:46:33
    Audio #3
    ID                                       : 4
    Format                                   : AC-3
    Format/Info                              : Audio Coding 3
    Mode extension                           : CM (complete main)
    Format settings, Endianness              : Big
    Codec ID                                 : ac-3
    Duration                                 : 1h 36mn
    Bit rate mode                            : Constant
    Bit rate                                 : 640 Kbps
    Channel(s)                               : 6 channels
    Channel positions                        : Front: L C R, Side: L R, LFE
    Sampling rate                            : 48.0 KHz
    Bit depth                                : 16 bits
    Compression mode                         : Lossy
    Stream size                              : 441 MiB (7%)
    Language                                 : Russian
    Encoded date                             : UTC 2015-06-19 10:46:13
    Tagged date                              : UTC 2015-06-19 10:46:18
    Audio #4
    ID                                       : 5
    Format                                   : AC-3
    Format/Info                              : Audio Coding 3
    Mode extension                           : CM (complete main)
    Format settings, Endianness              : Big
    Codec ID                                 : ac-3
    Duration                                 : 1h 36mn
    Bit rate mode                            : Constant
    Bit rate                                 : 640 Kbps
    Channel(s)                               : 6 channels
    Channel positions                        : Front: L C R, Side: L R, LFE
    Sampling rate                            : 48.0 KHz
    Bit depth                                : 16 bits
    Compression mode                         : Lossy
    Stream size                              : 441 MiB (7%)
    Language                                 : English
    Encoded date                             : UTC 2015-06-19 10:46:13
    Tagged date                              : UTC 2015-06-19 10:46:18
    Text #1
    ID                                       : 6
    Format                                   : Timed text
    Muxing mode                              : sbtl
    Codec ID                                 : tx3g
    Duration                                 : 1h 31mn
    Bit rate mode                            : Variable
    Bit rate                                 : 97 bps
    Stream size                              : 64.5 KiB (0%)
    Language                                 : Russian
    Encoded date                             : UTC 2015-06-19 10:46:13
    Tagged date                              : UTC 2015-06-19 10:46:13
    Text #2
    ID                                       : 7
    Format                                   : Timed text
    Muxing mode                              : sbtl
    Codec ID                                 : tx3g
    Duration                                 : 1h 32mn
    Bit rate mode                            : Variable
    Bit rate                                 : 62 bps
    Stream size                              : 41.9 KiB (0%)
    Language                                 : English
    Encoded date                             : UTC 2015-06-19 10:46:13
    Tagged date                              : UTC 2015-06-19 10:46:13
    Text #3
    ID                                       : 8
    Format                                   : Timed text
    Muxing mode                              : sbtl
    Codec ID                                 : tx3g
    Duration                                 : 1h 31mn
    Bit rate mode                            : Variable
    Bit rate                                 : 60 bps
    Stream size                              : 40.2 KiB (0%)
    Language                                 : English
    Encoded date                             : UTC 2015-06-19 10:46:13
    Tagged date                              : UTC 2015-06-19 10:46:13
    Text #4
    ID                                       : 9
    Format                                   : Apple text
    Codec ID                                 : text
    Duration                                 : 1h 36mn
    Bit rate mode                            : Constant
    Bit rate                                 : 0 bps
    Stream size                              : 208 Bytes (0%)
    Language                                 : English
    Encoded date                             : UTC 2015-06-19 10:46:33
    Tagged date                              : UTC 2015-06-19 10:46:33
    Menu
    00:00:00.000                             : 00:00:00.000
    00:11:18.845                             : 00:11:18.761
    00:24:39.895                             : 00:24:39.812
    00:37:16.276                             : 00:37:16.192
    01:03:26.594                             : 01:03:26.511
    01:15:06.043                             : 01:15:05.960
    01:23:42.309                             : 01:23:42.226
    01:32:01.850                             : 01:32:01.766

    x264 лог

    x264 [info]: frame I:788   Avg QP:17.67  size:147926
    x264 [info]: frame P:32098 Avg QP:20.85  size: 65146
    x264 [info]: frame B:105780 Avg QP:21.52  size: 33759
    x264 [info]: consecutive B-frames:  3.0%  4.5% 10.1% 13.5% 14.9% 47.2%  4.0%  0.4%  1.4%  0.2%  0.2%  0.1%  0.1%  0.1%  0.1%  0.0%  0.2%
    x264 [info]: mb I  I16..4: 16.3% 66.8% 16.9%
    x264 [info]: mb P  I16..4:  3.9% 14.5%  1.7%  P16..4: 45.7% 18.3%  8.8%  0.1%  0.0%    skip: 6.8%
    x264 [info]: mb B  I16..4:  0.3%  0.9%  0.1%  B16..8: 52.0% 10.9%  2.2%  direct: 9.1%  skip:24.5%  L0:46.4% L1:46.9% BI: 6.7%
    x264 [info]: 8x8 transform intra:71.1% inter:61.3%
    x264 [info]: direct mvs  spatial:98.5% temporal:1.5%
    x264 [info]: coded y,uvDC,uvAC intra: 87.6% 72.7% 36.0% inter: 43.3% 34.4% 7.1%
    x264 [info]: i16 v,h,dc,p: 20% 19% 28% 32%
    x264 [info]: i8 v,h,dc,ddl,ddr,vr,hd,vl,hu:  9%  7%  9% 11% 15% 14% 13% 12% 12%
    x264 [info]: i4 v,h,dc,ddl,ddr,vr,hd,vl,hu:  9% 24%  5%  8% 11% 11% 11%  9% 11%
    x264 [info]: i8c dc,h,v,p: 40% 24% 21% 15%
    x264 [info]: Weighted P-Frames: Y:2.5% UV:1.5%
    x264 [info]: ref P L0: 50.7% 11.1% 24.9% 11.5%  1.7%  0.0%
    x264 [info]: ref B L0: 84.2% 12.9%  2.9%
    x264 [info]: ref B L1: 91.6%  8.4%
    x264 [info]: kb/s:7993.24

    Скриншоты

    -

    Релиз подготовлен для просмотра на Apple TV, iPad, iPhone, iPod Touch.
    Для просмотра данного релиза на компьютере с ОС Windows рекомендуется использовать VLC media player
    Скачать .torrent

    Скачать торрент-файл бесплатно и на максимальной скорости!

    Как скачивать? · Что такое торрент? · Рейтинг и ограничения

    !ВНИМАНИЕ!
    Сайт не распространяет и не хранит электронные версии произведений, а занимается лишь лишь предоставлением доступа к создаваемому пользователями каталогу ссылок на торрент-файлы, которые содержат только списки хеш-сумм, убедительная просьба с жалобами обращаться напрямую к пользователю. Файлы для обмена на трекере предоставлены пользователями сайта, и администрация не несёт ответственности за их содержание. Просьба не заливать файлы, защищенные авторскими правами, а также файлы нелегального содержания!


    _________________
    [Профиль] [ЛС]
    Показать сообщения:    
    Ответить на тему

    Текущее время: Сегодня, в 03:27

    Часовой пояс: GMT + 2



    Вы не можете начинать темы
    Вы не можете отвечать на сообщения
    Вы не можете редактировать свои сообщения
    Вы не можете удалять свои сообщения
    Вы не можете голосовать в опросах
    Вы не можете прикреплять файлы к сообщениям
    Вы не можете скачивать файлы