BitTorrentTracker PerecTracker.org
BitTorrentTracker PerecTracker.org
    
Регистрация  ·  Вход
 
 · 
Забыли пароль?

  • Бертон и Тейлор / Burton and Taylor (Ричард Лакстон / Richard Laxton) [2013 г., Великобритания, Мелодрама, биографический, HDRip] MVO

    Ответить на тему
     
    Автор Сообщение

    Light

    Создавать темы 19-Июн-2015 15:30

           

    [Цитировать]

    Бертон и Тейлор / Burton and TaylorГод выпуска: 2013.
    Страна: Великобритания .
    Жанр: Мелодрама, биографический.
    Продолжительность: 01:26:03.
    Перевод: Профессиональный (многоголосый закадровый).
    Субтитры: нет.
    Оригинальная аудио дорожка: нет.
    Режиссер: Ричард Лакстон /Richard Laxton/.
    В ролях:
    Доминик Уэст, Хелена Бонэм Картер, Грег Хикс, Джефф Мэш, Тревор Уайт, Ленора Кричлоу, Стэнли Таунсенд, Люсилль Шарп, Сара Хэдлэнд, Уильям Хоуп, Майкл Джибсон.
    Описание:
    После второго развода Ричард Бертон и Элизабет Тэйлор снова встречаются в 1983 году для новой постановки пьесы "Интимная комедия", которая повторяет их собственную историю: состоящие в новых браках, но по-прежнему страстно влюбленные друг в друга, бывшие муж и жена Эллиот и Аманда снова сходятся вместе, погрязая в скандалах...
    Доп. информация:
    Киностудии: British Broadcasting Corporation (BBC).
    Автор сценария: Айвори Уильямс.
    Оператор: Дэвид Кацнельсон.
    Продюсеры: Лахлан МакКиннон, Эндрю Вуд, Джессика Поуп.
    Композитор: Джон Ланн.
    Художник: Джон Стивенсон.
    Премьера: 22 июля 2013 года (Великобритания), 9 марта 2015 года (Первый канал).

    Еще постеры


    Качество: HDRip (исходник BDRip 720p)
    Формат: AVI
    Видео: 672x368 (1.83:1), 24 fps, XviD build 50 ~1087 kbps avg, 0.18 bit/pixel
    Аудио: 48 kHz, MPEG Layer 3, 2 ch, ~112.00 kbps avg

    Отчет Media Info

    Общее
    Полное имя : Berton.i.Tejlor.2013.XviD.HDRip.avi
    Format : AVI
    Format/Info : Audio Video Interleave
    File size : 744 MiB
    Duration : 1h 26mn
    Overall bit rate : 1 209 Kbps
    Movie name : Бертон и Тейлор / Burton and Taylor (2013) / Бертон и Тейлор / Burton and Taylor (2013)
    Video
    ID : 0
    Format : MPEG-4 Visual
    Format profile : Advanced Simple@L5
    Format settings, BVOP : 1
    Format settings, QPel : No
    Format settings, GMC : No warppoints
    Format settings, Matrix : Default (MPEG)
    Codec ID : XVID
    Codec ID/Hint : XviD
    Duration : 1h 26mn
    Bit rate : 1 087 Kbps
    Width : 672 pixels
    Height : 368 pixels
    Display aspect ratio : 1.85:1
    Frame rate : 24.000 fps
    Color space : YUV
    Chroma subsampling : 4:2:0
    Bit depth : 8 bits
    Scan type : Progressive
    Compression mode : Lossy
    Bits/(Pixel*Frame) : 0.183
    Stream size : 669 MiB (90%)
    Writing library : XviD 1.2.1 (UTC 2008-12-04)
    Audio
    ID : 1
    Format : MPEG Audio
    Format version : Version 1
    Format profile : Layer 3
    Mode : Joint stereo
    Mode extension : MS Stereo
    Codec ID : 55
    Codec ID/Hint : MP3
    Duration : 1h 26mn
    Bit rate mode : Constant
    Bit rate : 112 Kbps
    Channel(s) : 2 channels
    Sampling rate : 48.0 KHz
    Compression mode : Lossy
    Stream size : 68.9 MiB (9%)
    Alignment : Split accross interleaves
    Interleave, duration : 42 ms (1.00 video frame)
    Interleave, preload duratio : 500 ms
    Language : Russian / Russian / Russian
    Скриншоты

    Альтернативный хост


    Скачать .torrent

    Скачать торрент-файл бесплатно и на максимальной скорости!

    Как скачивать? · Что такое торрент? · Рейтинг и ограничения

    !ВНИМАНИЕ!
    Сайт не распространяет и не хранит электронные версии произведений, а занимается лишь лишь предоставлением доступа к создаваемому пользователями каталогу ссылок на торрент-файлы, которые содержат только списки хеш-сумм, убедительная просьба с жалобами обращаться напрямую к пользователю. Файлы для обмена на трекере предоставлены пользователями сайта, и администрация не несёт ответственности за их содержание. Просьба не заливать файлы, защищенные авторскими правами, а также файлы нелегального содержания!


    _________________
    [Профиль] [ЛС]
    Показать сообщения:    
    Ответить на тему

    Текущее время: Сегодня, в 14:54

    Часовой пояс: GMT + 2



    Вы не можете начинать темы
    Вы не можете отвечать на сообщения
    Вы не можете редактировать свои сообщения
    Вы не можете удалять свои сообщения
    Вы не можете голосовать в опросах
    Вы не можете прикреплять файлы к сообщениям
    Вы не можете скачивать файлы