BitTorrentTracker PerecTracker.org
BitTorrentTracker PerecTracker.org
    
Регистрация  ·  Вход
 
 · 
Забыли пароль?

  • Кучерявая заложница / Tooken (Джон Мэллори Ашер / John Mallory Asher) [2015, США, Комедия, WEB-DLRip] DVO (Lucky Strike) + Original Eng

    Ответить на тему
     
    Автор Сообщение

    rechyn

    Создавать темы 19-Июн-2015 11:18

           

    [Цитировать]

    Кучерявая заложница / Tooken
    Страна: США
    Жанр: Комедия
    Год выпуска: 2015
    Продолжительность: 01:20:45
    Перевод: Любительский (двухголосый закадровый) Lucky Strike
    Cубтитры: нет
    Оригинальная аудиодорожка: английский
    Режиссер: Джон Мэллори Ашер / John Mallory Asher
    В ролях: Ли Тергесен, Итэн Сапли, Донни Уолберг, Дженни МакКарти, Лукас Хаас, Лорен Стемайл, Рено Уилсон, Маргарет Чо, Лора Ли, Эндрю Бауэн
    Описание: Фильм является пародией на франшизу "Заложница". Жизнь агента Брайана Миллерса (Ли Тергесен) полна лишений - он лишился работы в ЦРУ, уважения своей семьи, да и вообще - самой семьи, его бывшую жену планирует забрать наглый афро-американскей Деньго Тряс, а дочь... даже дочь может быть отнята и лишена (если она у нее еще есть) невинности. Но будто всего этого мало, во время покупки подарка на день рождения дочки, Брайан привлекает к себе внимание крупного китайско-американского гангстера (Маргарет Чо), главная цель которого - отнять всё и у всех! А все потому, что однажды, у кого-то была забрана очень ценная вещь...
    Доп. информация:

    Сэмпл: http://rusfolder.com/43830536
    Качество видео: WEB-DLRip
    Формат видео: AVI
    Видео: 1071 Кбит/с, 640x272, 23.976 fps
    Аудио: AC3, 2 ch, 128 Кбит/с

    MediaInfo

    General
    Complete name : E:\Tooken.2015.L2.WEBDLRip.700mb.avi
    Format : AVI
    Format/Info : Audio Video Interleave
    File size : 699 MiB
    Duration : 1h 20mn
    Overall bit rate : 1 209 Kbps
    Writing application : VirtualDubModRus 1.5.10.2 (build 2542/release)
    Writing library : VirtualDubMod build 2542/release
    Video
    ID : 0
    Format : MPEG-4 Visual
    Format profile : Advanced Simple@L5
    Format settings, BVOP : 2
    Format settings, QPel : No
    Format settings, GMC : No warppoints
    Format settings, Matrix : Default (H.263)
    Muxing mode : Packed bitstream
    Codec ID : XVID
    Codec ID/Hint : XviD
    Duration : 1h 20mn
    Bit rate : 1 072 Kbps
    Width : 640 pixels
    Height : 272 pixels
    Display aspect ratio : 2.35:1
    Frame rate : 23.976 fps
    Color space : YUV
    Chroma subsampling : 4:2:0
    Bit depth : 8 bits
    Scan type : Progressive
    Compression mode : Lossy
    Bits/(Pixel*Frame) : 0.257
    Stream size : 619 MiB (89%)
    Writing library : XviD 66
    Audio
    ID : 1
    Format : AC-3
    Format/Info : Audio Coding 3
    Mode extension : CM (complete main)
    Format settings, Endianness : Big
    Codec ID : 2000
    Duration : 1h 20mn
    Bit rate mode : Constant
    Bit rate : 128 Kbps
    Channel(s) : 2 channels
    Channel positions : Front: L R
    Sampling rate : 48.0 KHz
    Compression mode : Lossy
    Stream size : 73.9 MiB (11%)
    Alignment : Split accross interleaves
    Interleave, duration : 42 ms (1.00 video frame)
    Interleave, preload duration : 500 ms

    Скриншот c названием фильма

    Скриншоты




    Скачать .torrent

    Скачать торрент-файл бесплатно и на максимальной скорости!

    Как скачивать? · Что такое торрент? · Рейтинг и ограничения

    !ВНИМАНИЕ!
    Сайт не распространяет и не хранит электронные версии произведений, а занимается лишь лишь предоставлением доступа к создаваемому пользователями каталогу ссылок на торрент-файлы, которые содержат только списки хеш-сумм, убедительная просьба с жалобами обращаться напрямую к пользователю. Файлы для обмена на трекере предоставлены пользователями сайта, и администрация не несёт ответственности за их содержание. Просьба не заливать файлы, защищенные авторскими правами, а также файлы нелегального содержания!


    _________________
    [Профиль] [ЛС]
    Показать сообщения:    
    Ответить на тему

    Текущее время: Сегодня, в 12:11

    Часовой пояс: GMT + 2



    Вы не можете начинать темы
    Вы не можете отвечать на сообщения
    Вы не можете редактировать свои сообщения
    Вы не можете удалять свои сообщения
    Вы не можете голосовать в опросах
    Вы не можете прикреплять файлы к сообщениям
    Вы не можете скачивать файлы