BitTorrentTracker PerecTracker.org
BitTorrentTracker PerecTracker.org
    
Регистрация  ·  Вход
 
 · 
Забыли пароль?

  • Перед полуночью / Before Midnight (Ричард Линклейтер / Richard Linklater) [2013, США, Греция, мелодрама, BDRip] MVO (Первый канал)

    Ответить на тему
     
    Автор Сообщение

    Light

    Создавать темы 18-Июн-2015 22:42

           

    [Цитировать]

    Перед полуночью
    Before Midnight

    Страна: США, Греция
    Жанр: мелодрама
    Год выпуска: 2013
    Продолжительность: 01:48:54-Перевод: Профессиональный (многоголосый закадровый)
    Кинокомпания “Эй Би Видео” по заказу Первого канала
    Cубтитры: нет
    Оригинальная аудиодорожка: нет-Режиссер: Ричард Линклейтер / Richard Linklater
    В ролях: Итан Хоук, Жюли Дельпи, Шеймас Дэви-Фицпатрик, Ксения Калогеропулу, Уолтер Лассали, Ариана Лабед, Яннис Пападопулос, Афина Рахель Цангари, Панос Коронис, Йота Аргиропулу, Тети Калафати, Джон Слосс-Описание: Продолжение трилогии наблюдений за мужчиной и женщиной, любящих друг друга на протяжении многих лет.
    Сейчас мы встречаем героев 9 лет спустя в Греции, куда они едут в гости к своим давним друзьям. Почти два десятилетия прошло с их первой встречи в поезде по пути в Вену. Как они преодолеют осень своих отношений?
    -Доп. информация:
    О переводе: Перевод на трекере появляется впервые
    Качество: IPTV (Первый канал)
    Исходник и синхронизация: mister55555-Сэмпл: минута59сек-Качество видео: BDRip (BDRemux, спасибо Sergei7721 с рутора и кинозала)
    Формат видео: AVI
    Видео: XVID, 720х384, 1,85:1, 23,976 кадра/сек, 1596 Кбит/сек
    Аудио: AC-3, 48,0 КГц, 192 Кбит/сек, 2 канала (многоголосый Первый канал)

    MediaInfo

    Общее
    Полное имя : D:\с диска Е\инет\Раздачи\Перед полуночью.2013.BDRip.1канал\Перед полуночью.2013.BDRip.1канал.avi
    Формат : AVI
    Формат/Информация : Audio Video Interleave
    Размер файла : 1,37 Гбайт
    Продолжительность : 1 ч. 48 м.
    Общий поток : 1797 Кбит/сек
    Дата записи : 17.06.2015
    Программа кодирования : VirtualDubModRus 1.5.10.2 (build 2542/release)
    Библиотека кодирования : VirtualDubMod build 2542/release
    Авторское право : mister55555
    Примечание : для perectracker.org
    Видео
    Идентификатор : 0
    Формат : MPEG-4 Visual
    Профиль формата : Advanced Simple@L5
    Параметр BVOP формата : 2
    Параметр QPel формата : Нет
    Параметр GMC формата : Без точки перехода
    Параметр матрицы формата : Выборочная
    Идентификатор кодека : XVID
    Идентификатор кодека/Подсказка : XviD
    Продолжительность : 1 ч. 48 м.
    Битрейт : 1596 Кбит/сек
    Ширина : 720 пикселей
    Высота : 384 пикселя
    Соотношение сторон : 1,85:1
    Частота кадров : 23,976 кадра/сек
    Цветовое пространство : YUV
    Субдискретизация насыщенности : 4:2:0
    Битовая глубина : 8 бит
    Тип развёртки : Прогрессивная
    Метод сжатия : С потерями
    Бит/(Пиксели*Кадры) : 0.241
    Размер потока : 1,21 Гбайт (89%)
    Библиотека кодирования : XviD 73
    Аудио
    Идентификатор : 1
    Формат : AC-3
    Формат/Информация : Audio Coding 3
    Расширение режима : CM (complete main)
    Параметр Endianness формата : Big
    Идентификатор кодека : 2000
    Продолжительность : 1 ч. 48 м.
    Вид битрейта : Постоянный
    Битрейт : 192 Кбит/сек
    Каналы : 2 канала
    Расположение каналов : Front: L R
    Частота : 48,0 КГц
    Метод сжатия : С потерями
    Размер потока : 150 Мбайт (11%)
    Выравнивание : Разделение по промежуткам
    Продолжительность промежутка : 42 мс. (1,00 видеокадр)
    Время предзагрузки промежутка : 500 мс.
    Заголовок : многоголосый Первый канал

    Скриншот c названием фильма

    Скриншоты

    Скачать .torrent

    Скачать торрент-файл бесплатно и на максимальной скорости!

    Как скачивать? · Что такое торрент? · Рейтинг и ограничения

    !ВНИМАНИЕ!
    Сайт не распространяет и не хранит электронные версии произведений, а занимается лишь лишь предоставлением доступа к создаваемому пользователями каталогу ссылок на торрент-файлы, которые содержат только списки хеш-сумм, убедительная просьба с жалобами обращаться напрямую к пользователю. Файлы для обмена на трекере предоставлены пользователями сайта, и администрация не несёт ответственности за их содержание. Просьба не заливать файлы, защищенные авторскими правами, а также файлы нелегального содержания!


    _________________
    [Профиль] [ЛС]
    Показать сообщения:    
    Ответить на тему

    Текущее время: Сегодня, в 20:11

    Часовой пояс: GMT + 2



    Вы не можете начинать темы
    Вы не можете отвечать на сообщения
    Вы не можете редактировать свои сообщения
    Вы не можете удалять свои сообщения
    Вы не можете голосовать в опросах
    Вы не можете прикреплять файлы к сообщениям
    Вы не можете скачивать файлы