BitTorrentTracker PerecTracker.org
BitTorrentTracker PerecTracker.org
    
Регистрация  ·  Вход
 
 · 
Забыли пароль?

  • Континуум / Project Almanac (Дин Израэлайт / Dean Israelite ) [2014, США, Фантастика, триллер, BDRip, HD (720p)] DUB + Original + sub (rus, eng)

    Ответить на тему
     
    Автор Сообщение

    rechyn

    Создавать темы 18-Июн-2015 18:30

           

    [Цитировать]

    Континуум / Project Almanac
    «Вчера будет весело»
    6.487 / 10 6.30 / 10
    -Год выпуска: 2014
    Страна: США
    Жанр: Фантастика, триллер
    Продолжительность: 01:46:12
    Перевод: Дублированный (iTunes)
    Оригинальная аудиодорожка: Есть
    Cубтитры: Русские форсированные, Русские, Английские, Английские SDH
    Режиссёр: Дин Израэлайт
    Сценарий: Джейсон Паган, Эндрю Дючман
    Продюсер: Майкл Бэй, Эндрю Форм, Брэдли Фуллер
    Оператор: Мэттью Дж. Ллойд
    Художник: Мехер Ахмад, Мэри Джейн Форт, Дэвид Смит
    Монтаж: Мартин Бернфельд, Джулиан Кларк
    В ролях: Джонни Уэстон, София Блэк-Д’Элиа, Сэм Лернер, Аллен Евангелиста, Вирджиния Гарднер, Эми Ландекер, Гари Викс, Максен Линтц, Гэри Граббс, Мишель ДеФрайтс
    Бюджет: $12 000 000
    Сборы в США: $22 348 241
    Сборы в мире: + $9 900 000 = $32 248 241
    Сборы в России: $1 555 041
    Мировая премьера: 13 ноября 2014
    Премьера (РФ): 29 января 2015, «Централ Партнершип»
    Релиз на DVD: 22 июня 2015, «Новый Диск»
    Релиз на Blu-Ray: 22 июня 2015, «Новый Диск»
    Описание: Однажды после просмотра старой пленки со дня рождения уже взрослый именинник заметил себя «настоящего» в отражении на видео. Съедаемые любопытством, друзья нашли чертежи таинственного устройства, похожего на машину времени. Они решили доделать ее и испробовать, чтобы вернуться в прошлое и исправить некоторые ошибки.-Качество исходника: BDRemux (HDClub)
    Качество: BDRip
    Тип: HD (720p)
    Контейнер: M4V
    Видео: H.264, 1280x536, 2.40:1, 3 500 Kbps, 23.976 fps
    Аудио 1: Русский/Дублированный (iTunes), AAC / 2.0 / 150 Kbps / 48.0 KHz
    Аудио 2: Английский/Оригинальная дорожка , AAC / 2.0 / 155 Kbps / 48.0 KHz
    Аудио 3: Русский/Дублированный (iTunes), AC-3 / 5.1 / 384 Kbps / 48.0 KHz
    Аудио 4: Английский/Оригинальная дорожка , AC-3 / 5.1 / 640 Kbps / 48.0 KHz
    Субтитры 1: Русские форсированные
    Субтитры 2: Русские полные
    Субтитры 3: Английские полные
    Субтитры 4: Английские SDH
    -

    iTunes Meta Tags

    Sort Name: Project Almanac
    XID: Apple:vendor_id:2014-711454
    contentID: 959068086
    Copyright: © 2014 Paramount Pictures Corporation. All Rights Reserved.
    Screenwriters: Джейсон Паган, Эндрю Дючман
    Producers: Майкл Бэй, Эндрю Форм, Брэдли Фуллер
    Director: Дин Израэлайт
    Cast: Джонни Уэстон, София Блэк-Д’Элиа, Сэм Лернер, Аллен Евангелиста, Вирджиния Гарднер, Эми Ландекер, Гари Викс, Максен Линтц, Гэри Граббс, Мишель ДеФрайтс, Иван Калинин, Евгения Ваган, Станислав Тикунов, Диомид Виноградов, Мария Иващенко
    Studio:  Paramount Pictures
    Rating: 10
    Long Description: Однажды после просмотра старой пленки со дня рождения уже взрослый именинник заметил себя "настоящего" в отражении на видео. Съедаемые любопытством, друзья нашли чертежи таинственного устройства, похожего на машину времени. Они решили доделать ее и испробовать, чтобы вернуться в прошлое и исправить некоторые ошибки.
    Но что будет, если группа отвязных тинейджеров случайно завладеет машиной времени? Однозначно, будет весело! Пока кто-то не нарушит правила, и веселая шутка не обернется кошмаром. Надо торопиться восстановить континуум, пока мир окончательно не разрушен!
    Description: Однажды после просмотра старой пленки со дня рождения уже взрослый именинник заметил себя "настоящего" в отражении на видео. Съедаемые любопытством, друзья нашли чертежи таинственного устройства, похожего на машину времени. Они решили доделать ее и испробовать, чтобы вернуться в прошлое и исправить некоторые ошибки.
    Release Date: 2014-11-13T08:00:00Z
    Genre: Sci-Fi & Fantasy
    Artist: Dean Israelite
    Name: Project Almanac

    MediaInfo

    General
    Complete name                            : /Users/imac/HandBrake/Project Almanac (720p HD).m4v
    Format                                   : MPEG-4
    Codec ID                                 : M4V
    File size                                : 3.59 GiB
    Duration                                 : 1h 46mn
    Overall bit rate mode                    : Variable
    Overall bit rate                         : 4 833 Kbps
    Movie name                               : Project Almanac
    Performer                                : Dean Israelite
    Genre                                    : Sci-Fi & Fantasy
    Recorded date                            : UTC 2014-11-13 08:00:00
    Encoded date                             : UTC 2015-06-18 11:46:14
    Tagged date                              : UTC 2015-06-18 11:54:27
    Copyright                                : © 2014 Paramount Pictures Corporation. All Rights Reserved.
    Cover                                    : Yes
    sonm                                     : Project Almanac
    desc                                     : Однажды после просмотра старой пленки со дня рождения уже взрослый именинник заметил себя "настоящего" в отражении на видео. Съедаемые любопытством, друзья нашли чертежи таинственного устройства, похожего на машину времени. Они решили доделать ее и испробовать, чтобы вернуться в прошлое и исправить некоторые ошибки.
    ldes                                     : Однажды после просмотра старой пленки со дня рождения уже взрослый именинник заметил себя "настоящего" в отражении на видео. Съедаемые любопытством, друзья нашли чертежи таинственного устройства, похожего на машину времени. Они решили доделать ее и испробовать, чтобы вернуться в прошлое и исправить некоторые ошибки. Но что будет, если группа отвязных тинейджеров случайно завладеет машиной времени? Однозначно, будет весело! Пока кто-то не нарушит правила, и веселая шутка не обернется кошмаром. Надо торопиться восстановить континуум, пока мир окончательно не разрушен!
    hdvd                                     : 1
    stik                                     : 9
    rtng                                     : 0
    cnID                                     : 959068086
    xid                                      : Apple:vendor_id:2014-711454
    iTunEXTC                                 : mpaa|PG-13|300|
    iTunMOVI                                 : <?xml version=\"1.0\" encoding=\"UTF-8\"?> / <!DOCTYPE plist PUBLIC \"-//Apple//DTD PLIST 1.0//EN\" \"http://anonym.to/?http://www.apple.com/DTDs/PropertyList-1.0.dtd\"> / <plist version=\"1.0\"> / <dict> /  <key>cast</key> /  <array> /   <dict> /    <key>name</key> /    <string>Джонни Уэстон</string> /   </dict> /   <dict> /    <key>name</key> /    <string>София Блэк-Д’Элиа</string> /   </dict> /   <dict> /    <key>name</key> /    <string>Сэм Лернер</string> /   </dict> /   <dict> /    <key>name</key> /    <string>Аллен Евангелиста</string> /   </dict> /   <dict> /    <key>name</key> /    <string>Вирджиния Гарднер</string> /   </dict> /   <dict> /    <key>name</key> /    <string>Эми Ландекер</string> /   </dict> /   <dict> /    <key>name</key> /    <string>Гари Викс</string> /   </dict> /   <dict> /    <key>name</key> /    <string>Максен Линтц</string> /   </dict> /   <dict> /    <key>name</key> /    <string>Гэри Граббс</string> /   </dict> /   <dict> /    <key>name</key> /    <string>Мишель ДеФрайтс</string> /   </dict> /   <dict> /    <key>name</key> /    <string>Иван Калинин</string> /   </dict> /   <dict> /    <key>name</key> /    <string>Евгения Ваган</string> /   </dict> /   <dict> /    <key>name</key> /    <string>Станислав Тикунов</string> /   </dict> /   <dict> /    <key>name</key> /    <string>Диомид Виноградов</string> /   </dict> /   <dict> /    <key>name</key> /    <string>Мария Иващенко</string> /   </dict> /  </array> /  <key>directors</key> /  <array> /   <dict> /    <key>name</key> /    <string>Дин Израэлайт</string> /   </dict> /  </array> /  <key>producers</key> /  <array> /   <dict> /    <key>name</key> /    <string>Майкл Бэй</string> /   </dict> /   <dict> /    <key>name</key> /    <string>Эндрю Форм</string> /   </dict> /   <dict> /    <key>name</key> /    <string>Брэдли Фуллер</string> /   </dict> /  </array> /  <key>screenwriters</key> /  <array> /   <dict> /    <key>name</key> /    <string>Джейсон Паган</string> /   </dict> /   <dict> /    <key>name</key> /    <string>Эндрю Дючман</string> /   </dict> /  </array> /  <key>studio</key> /  <string> Paramount Pictures</string> / </dict> / </plist>
    Video #1
    ID                                       : 1
    Format                                   : AVC
    Format/Info                              : Advanced Video Codec
    Format profile                           : High@L3.1
    Format settings, CABAC                   : No
    Format settings, ReFrames                : 3 frames
    Codec ID                                 : avc1
    Codec ID/Info                            : Advanced Video Coding
    Duration                                 : 1h 46mn
    Bit rate mode                            : Variable
    Bit rate                                 : 3 500 Kbps
    Width                                    : 1 280 pixels
    Height                                   : 536 pixels
    Display aspect ratio                     : 2.40:1
    Frame rate mode                          : Variable
    Frame rate                               : 23.976 fps
    Minimum frame rate                       : 23.974 fps
    Maximum frame rate                       : 23.981 fps
    Color space                              : YUV
    Chroma subsampling                       : 4:2:0
    Bit depth                                : 8 bits
    Scan type                                : Progressive
    Bits/(Pixel*Frame)                       : 0.213
    Stream size                              : 2.59 GiB (72%)
    Writing library                          : x264 core 142 r2479 dd79a61
    Encoding settings                        : cabac=0 / ref=3 / deblock=1:-3:-3 / analyse=0x3:0x113 / me=umh / subme=9 / psy=1 / psy_rd=1.00:0.15 / mixed_ref=1 / me_range=32 / chroma_me=1 / trellis=0 / 8x8dct=1 / cqm=0 / deadzone=21,11 / fast_pskip=0 / chroma_qp_offset=-2 / threads=36 / lookahead_threads=3 / sliced_threads=0 / nr=0 / decimate=0 / interlaced=0 / bluray_compat=0 / constrained_intra=0 / bframes=3 / b_pyramid=0 / b_adapt=2 / b_bias=0 / direct=1 / weightb=0 / open_gop=0 / weightp=0 / keyint=240 / keyint_min=24 / scenecut=40 / intra_refresh=0 / rc_lookahead=40 / rc=2pass / mbtree=1 / bitrate=3500 / ratetol=1.0 / qcomp=0.65 / qpmin=0 / qpmax=69 / qpstep=4 / cplxblur=20.0 / qblur=0.5 / vbv_maxrate=9500 / vbv_bufsize=9500 / nal_hrd=none / filler=0 / ip_ratio=1.40 / aq=1:1.10
    Language                                 : English
    Encoded date                             : UTC 2015-06-18 11:46:15
    Tagged date                              : UTC 2015-06-18 11:46:27
    Color primaries                          : BT.709-5, BT.1361, IEC 61966-2-4, SMPTE RP177
    Transfer characteristics                 : BT.709-5, BT.1361
    Matrix coefficients                      : BT.709-5, BT.1361, IEC 61966-2-4 709, SMPTE RP177
    Video #2
    ID                                       : 11
    Format                                   : JPEG
    Codec ID                                 : jpeg
    Duration                                 : 1h 46mn
    Bit rate mode                            : Variable
    Bit rate                                 : 477 bps
    Width                                    : 640 pixels
    Height                                   : 268 pixels
    Display aspect ratio                     : 2.40:1
    Frame rate mode                          : Variable
    Frame rate                               : 0.002 fps
    Minimum frame rate                       : 0.002 fps
    Maximum frame rate                       : 0.003 fps
    Color space                              : YUV
    Chroma subsampling                       : 4:2:0
    Bit depth                                : 8 bits
    Compression mode                         : Lossy
    Bits/(Pixel*Frame)                       : 1.391
    Stream size                              : 408 KiB (0%)
    Language                                 : English
    Encoded date                             : UTC 2015-06-18 11:46:33
    Tagged date                              : UTC 2015-06-18 11:46:33
    Audio #1
    ID                                       : 2
    Format                                   : AAC
    Format/Info                              : Advanced Audio Codec
    Format profile                           : LC
    Codec ID                                 : 40
    Duration                                 : 1h 46mn
    Bit rate mode                            : Variable
    Bit rate                                 : 150 Kbps
    Maximum bit rate                         : 246 Kbps
    Channel(s)                               : 2 channels
    Channel positions                        : Front: L R
    Sampling rate                            : 48.0 KHz
    Compression mode                         : Lossy
    Stream size                              : 114 MiB (3%)
    Language                                 : Russian
    Encoded date                             : UTC 2015-06-18 11:46:14
    Tagged date                              : UTC 2015-06-18 11:46:29
    Audio #2
    ID                                       : 3
    Format                                   : AAC
    Format/Info                              : Advanced Audio Codec
    Format profile                           : LC
    Codec ID                                 : 40
    Duration                                 : 1h 46mn
    Bit rate mode                            : Variable
    Bit rate                                 : 155 Kbps
    Maximum bit rate                         : 263 Kbps
    Channel(s)                               : 2 channels
    Channel positions                        : Front: L R
    Sampling rate                            : 48.0 KHz
    Compression mode                         : Lossy
    Stream size                              : 117 MiB (3%)
    Language                                 : English
    Encoded date                             : UTC 2015-06-18 11:46:15
    Tagged date                              : UTC 2015-06-18 11:46:29
    Audio #3
    ID                                       : 4
    Format                                   : AC-3
    Format/Info                              : Audio Coding 3
    Mode extension                           : CM (complete main)
    Format settings, Endianness              : Big
    Codec ID                                 : ac-3
    Duration                                 : 1h 46mn
    Bit rate mode                            : Constant
    Bit rate                                 : 384 Kbps
    Channel(s)                               : 6 channels
    Channel positions                        : Front: L C R, Side: L R, LFE
    Sampling rate                            : 48.0 KHz
    Bit depth                                : 16 bits
    Compression mode                         : Lossy
    Stream size                              : 292 MiB (8%)
    Language                                 : Russian
    Encoded date                             : UTC 2015-06-18 11:46:15
    Tagged date                              : UTC 2015-06-18 11:46:20
    Audio #4
    ID                                       : 5
    Format                                   : AC-3
    Format/Info                              : Audio Coding 3
    Mode extension                           : CM (complete main)
    Format settings, Endianness              : Big
    Codec ID                                 : ac-3
    Duration                                 : 1h 46mn
    Bit rate mode                            : Constant
    Bit rate                                 : 640 Kbps
    Channel(s)                               : 6 channels
    Channel positions                        : Front: L C R, Side: L R, LFE
    Sampling rate                            : 48.0 KHz
    Bit depth                                : 16 bits
    Compression mode                         : Lossy
    Stream size                              : 486 MiB (13%)
    Language                                 : English
    Encoded date                             : UTC 2015-06-18 11:46:15
    Tagged date                              : UTC 2015-06-18 11:46:20
    Text #1
    ID                                       : 6
    Format                                   : Timed text
    Muxing mode                              : sbtl
    Codec ID                                 : tx3g
    Duration                                 : 1h 41mn
    Bit rate mode                            : Variable
    Bit rate                                 : 1 bps
    Stream size                              : 428 Bytes (0%)
    Language                                 : Russian
    Encoded date                             : UTC 2015-06-18 11:46:15
    Tagged date                              : UTC 2015-06-18 11:46:27
    Text #2
    ID                                       : 7
    Format                                   : Timed text
    Muxing mode                              : sbtl
    Codec ID                                 : tx3g
    Duration                                 : 1h 41mn
    Bit rate mode                            : Variable
    Bit rate                                 : 130 bps
    Stream size                              : 96.8 KiB (0%)
    Language                                 : Russian
    Encoded date                             : UTC 2015-06-18 11:46:15
    Tagged date                              : UTC 2015-06-18 11:46:27
    Text #3
    ID                                       : 8
    Format                                   : Timed text
    Muxing mode                              : sbtl
    Codec ID                                 : tx3g
    Duration                                 : 1h 41mn
    Bit rate mode                            : Variable
    Bit rate                                 : 98 bps
    Stream size                              : 73.0 KiB (0%)
    Language                                 : English
    Encoded date                             : UTC 2015-06-18 11:46:15
    Tagged date                              : UTC 2015-06-18 11:46:27
    Text #4
    ID                                       : 9
    Format                                   : Timed text
    Muxing mode                              : sbtl
    Codec ID                                 : tx3g
    Duration                                 : 1h 41mn
    Bit rate mode                            : Variable
    Bit rate                                 : 114 bps
    Stream size                              : 84.5 KiB (0%)
    Language                                 : English
    Encoded date                             : UTC 2015-06-18 11:46:15
    Tagged date                              : UTC 2015-06-18 11:46:27
    Text #5
    ID                                       : 10
    Format                                   : Apple text
    Codec ID                                 : text
    Duration                                 : 1h 46mn
    Bit rate mode                            : Variable
    Bit rate                                 : 0 bps
    Stream size                              : 327 Bytes (0%)
    Language                                 : English
    Encoded date                             : UTC 2015-06-18 11:46:29
    Tagged date                              : UTC 2015-06-18 11:46:29
    Menu
    00:00:00.000                             : Chapter 1
    00:07:55.892                             : Chapter 2
    00:15:20.294                             : Chapter 3
    00:23:49.887                             : Chapter 4
    00:31:15.749                             : Chapter 5
    00:39:18.773                             : Chapter 6
    00:46:58.357                             : Chapter 7
    00:54:11.498                             : Chapter 8
    01:00:55.569                             : Chapter 9
    01:09:43.388                             : Chapter 10
    01:16:24.455                             : Chapter 11
    01:23:07.816                             : Chapter 12
    01:32:20.702                             : Chapter 13
    01:41:18.864                             : Chapter 14

    x264 лог

    x264 [info]: frame I:1003  Avg QP:17.74  size: 75013
    x264 [info]: frame P:63519 Avg QP:20.89  size: 28410
    x264 [info]: frame B:88272 Avg QP:22.37  size: 10262
    x264 [info]: consecutive B-frames:  8.9% 30.5% 35.3% 25.3%
    x264 [info]: mb I  I16..4: 14.4% 53.7% 31.9%
    x264 [info]: mb P  I16..4:  3.6%  9.7%  4.0%  P16..4: 45.5% 19.9%  8.6%  0.0%  0.0%    skip: 8.7%
    x264 [info]: mb B  I16..4:  0.3%  1.4%  0.6%  B16..8: 43.2%  9.4%  1.6%  direct: 4.5%  skip:39.0%  L0:40.8% L1:52.6% BI: 6.6%
    x264 [info]: 8x8 transform intra:57.2% inter:50.2%
    x264 [info]: coded y,uvDC,uvAC intra: 75.9% 73.9% 43.8% inter: 25.3% 22.3% 8.6%
    x264 [info]: i16 v,h,dc,p: 40% 19%  6% 35%
    x264 [info]: i8 v,h,dc,ddl,ddr,vr,hd,vl,hu:  9%  7%  4% 12% 17% 15% 15% 10% 11%
    x264 [info]: i4 v,h,dc,ddl,ddr,vr,hd,vl,hu: 10%  8%  3% 12% 17% 16% 15% 10%  9%
    x264 [info]: i8c dc,h,v,p: 48% 19% 19% 13%
    x264 [info]: ref P L0: 73.4% 15.6% 11.0%
    x264 [info]: ref B L0: 81.8% 18.2%
    x264 [info]: kb/s:3496.98

    Скриншоты

    -

    Релиз подготовлен для просмотра на Apple TV, iPad, iPhone, iPod Touch.
    Для просмотра данного релиза на компьютере с ОС Windows рекомендуется использовать VLC media player
    Скачать .torrent

    Скачать торрент-файл бесплатно и на максимальной скорости!

    Как скачивать? · Что такое торрент? · Рейтинг и ограничения

    !ВНИМАНИЕ!
    Сайт не распространяет и не хранит электронные версии произведений, а занимается лишь лишь предоставлением доступа к создаваемому пользователями каталогу ссылок на торрент-файлы, которые содержат только списки хеш-сумм, убедительная просьба с жалобами обращаться напрямую к пользователю. Файлы для обмена на трекере предоставлены пользователями сайта, и администрация не несёт ответственности за их содержание. Просьба не заливать файлы, защищенные авторскими правами, а также файлы нелегального содержания!


    _________________
    [Профиль] [ЛС]
    Показать сообщения:    
    Ответить на тему

    Текущее время: Сегодня, в 14:53

    Часовой пояс: GMT + 2



    Вы не можете начинать темы
    Вы не можете отвечать на сообщения
    Вы не можете редактировать свои сообщения
    Вы не можете удалять свои сообщения
    Вы не можете голосовать в опросах
    Вы не можете прикреплять файлы к сообщениям
    Вы не можете скачивать файлы