BitTorrentTracker PerecTracker.org
BitTorrentTracker PerecTracker.org
    
Регистрация  ·  Вход
 
 · 
Забыли пароль?

  • Мальчик в платье / The Boy in the Dress (Matt Lipsey / Мэтт Липси) [2014, Великобритания, драма, комедия, семейный, WEB-DLRip-AVC] VO + Original Eng

    Ответить на тему
     
    Автор Сообщение

    Light

    Создавать темы 18-Июн-2015 10:06

           

    [Цитировать]

    Мальчик в платье / The Boy in the Dress
    Страна: Великобритания
    Жанр: драма, комедия, семейный
    Год выпуска: 2014
    Продолжительность: 01:02:17
    Перевод: Одноголосый закадровый по титрам (MiXeR)
    Cубтитры: нет
    Оригинальная аудиодорожка: английский
    Режиссер: Matt Lipsey / Мэтт Липси
    В ролях: Билли Кеннеди / Billy Kennedy, Фелисити Монтегю / Felicity Montagu, Тим МакИннерни / Tim McInnerny, Temi Orelaja, Дженнифер Сондерс / Jennifer Saunders, Аарон Чавла / Aaron Chawla, Мира Сайал / Meera Syal, Rosheen Hinze, Оливер Барри-Брук / Oliver Barry-Brook, Стив Спайрс / Steve Speirs
    Описание: 12-летний Деннис увлекается футболом и модой. Фильм повествует о реакции его семьи и друзей на столь разносторонние интересы мальчика.
    Сэмпл: http://multi-up.com/1054189
    Качество видео: WEB-DLRip-AVC
    Формат видео: MKV
    Видео: AVC at 2251 Кбит/сек : 1280 x 720 (1.778) at 25.000 fps
    Аудио 1: MPEG Audio at 192 Кбит/сек : 2 канала, 48,0 КГц(Русский)
    Аудио 2: MPEG Audio at 192 Кбит/сек : 2 канала, 48,0 КГц(Английский)

    MediaInfo

    Общее
    Уникальный идентификатор : 212077250518308700523135096079616801843 (0x9F8C97BD21687F319F16DA6686E77C33)
    Полное имя : F:\С моей озвучкой\Мальчик в платье.mkv
    Формат : Matroska
    Версия формата : Version 4 / Version 2
    Размер файла : 1,17 Гбайт
    Продолжительность : 1 ч. 2 м.
    Режим общего битрейта : Переменный
    Общий поток : 2689 Кбит/сек
    Дата кодирования : UTC 2015-06-17 21:10:32
    Программа кодирования : mkvmerge v7.9.0 ('Birds') 64bit
    Библиотека кодирования : libebml v1.3.1 + libmatroska v1.4.2
    _STATISTICS_WRITING_APP : mkvmerge v7.9.0 ('Birds') 64bit
    _STATISTICS_WRITING_DATE_UTC : 2015-06-17 21:10:32
    _STATISTICS_TAGS : BPS DURATION NUMBER_OF_FRAMES NUMBER_OF_BYTES
    DURATION : 01:02:17.016000000
    NUMBER_OF_FRAMES : 155709
    NUMBER_OF_BYTES : 89688384
    Видео
    Идентификатор : 1
    Формат : AVC
    Формат/Информация : Advanced Video Codec
    Профиль формата : High@L4.1
    Параметр CABAC формата : Да
    Параметр ReFrames формата : 2 кадра
    Идентификатор кодека : V_MPEG4/ISO/AVC
    Продолжительность : 1 ч. 2 м.
    Вид битрейта : Переменный
    Битрейт : 2251 Кбит/сек
    Максимальный битрейт : 3500 Кбит/сек
    Ширина : 1280 пикселей
    Высота : 720 пикселей
    Соотношение сторон : 16:9
    Режим частоты кадров : Постоянный
    Частота кадров : 25,000 кадров/сек
    Цветовое пространство : YUV
    Субдискретизация насыщенности : 4:2:0
    Битовая глубина : 8 бит
    Тип развёртки : Прогрессивная
    Бит/(Пиксели*Кадры) : 0.098
    Размер потока : 1003 Мбайт (84%)
    Default : Да
    Forced : Нет
    Аудио #1
    Идентификатор : 2
    Формат : MPEG Audio
    Версия формата : Version 1
    Профиль формата : Layer 3
    Режим : Joint stereo
    Идентификатор кодека : A_MPEG/L3
    Идентификатор кодека/Подсказка : MP3
    Продолжительность : 1 ч. 2 м.
    Вид битрейта : Постоянный
    Битрейт : 192 Кбит/сек
    Каналы : 2 канала
    Частота : 48,0 КГц
    Метод сжатия : С потерями
    Задержка видео : -40 мс.
    Размер потока : 85,5 Мбайт (7%)
    Библиотека кодирования : LAME3.96
    Default : Да
    Forced : Нет
    Аудио #2
    Идентификатор : 3
    Формат : MPEG Audio
    Версия формата : Version 1
    Профиль формата : Layer 3
    Режим : Joint stereo
    Идентификатор кодека : A_MPEG/L3
    Идентификатор кодека/Подсказка : MP3
    Продолжительность : 1 ч. 2 м.
    Вид битрейта : Постоянный
    Битрейт : 192 Кбит/сек
    Каналы : 2 канала
    Частота : 48,0 КГц
    Метод сжатия : С потерями
    Задержка видео : -40 мс.
    Размер потока : 85,5 Мбайт (7%)
    Библиотека кодирования : LAME3.98
    Default : Нет
    Forced : Нет

    Скриншоты

    Скачать .torrent

    Скачать торрент-файл бесплатно и на максимальной скорости!

    Как скачивать? · Что такое торрент? · Рейтинг и ограничения

    !ВНИМАНИЕ!
    Сайт не распространяет и не хранит электронные версии произведений, а занимается лишь лишь предоставлением доступа к создаваемому пользователями каталогу ссылок на торрент-файлы, которые содержат только списки хеш-сумм, убедительная просьба с жалобами обращаться напрямую к пользователю. Файлы для обмена на трекере предоставлены пользователями сайта, и администрация не несёт ответственности за их содержание. Просьба не заливать файлы, защищенные авторскими правами, а также файлы нелегального содержания!


    _________________
    [Профиль] [ЛС]
    Показать сообщения:    
    Ответить на тему

    Текущее время: Сегодня, в 17:52

    Часовой пояс: GMT + 2



    Вы не можете начинать темы
    Вы не можете отвечать на сообщения
    Вы не можете редактировать свои сообщения
    Вы не можете удалять свои сообщения
    Вы не можете голосовать в опросах
    Вы не можете прикреплять файлы к сообщениям
    Вы не можете скачивать файлы