BitTorrentTracker PerecTracker.org
BitTorrentTracker PerecTracker.org
    
Регистрация  ·  Вход
 
 · 
Забыли пароль?

  • Мортадело и Филимон против Джимми Торчка / Приключения Мортадело и Филимона 3 / Mortadelo y Filemón contra Jimmy el Cachondo (Хавьер Фессер / Javier Fesser) [2014, мультфильм, комедия, BDRip] AVO (Антон Алексеев)

    Ответить на тему
     
    Автор Сообщение

    rechyn

    Создавать темы 18-Июн-2015 05:54

           

    [Цитировать]

    Приключения Мортадело и Филимона 3
    Mortadelo y Filemón contra Jimmy el Cachondo
    Страна: Испания
    Жанр: мультфильм, комедия
    Продолжительность: 01:32:10
    Год выпуска: 2014-Перевод: Авторский (одноголосый закадровый) Антон Алексеев
    Русские субтитры: нет
    Режиссёр: Хавьер Фессер / Javier Fesser-Роли озвучивали: Карра Элехальде, Джанфри Топера, Гэбриель Шаме, Рамон Ланга, Виктор Мониготе, Хосе Алиас, Мариано Венансио, Энрике Вильен, Эмилио Гавира, Берта Охеа-Описание: Злодей Джимми со своими помощниками похищает сейф с секретными документами прямо из штаб-квартиры разведагентства. Его начальнику не остается ничего иного как поручить возвращение документов двум агентам Мортадело и Филемону. В то же время из тюрьмы сбегает бандит, который жаждет отомстить Филемону за арест.-Релиз:
    | | -Качество: BDRip
    Формат: AVI
    Видео: 656x352 (1.86:1), 23,976 fps, XviD 66 ~997 kbps avg, 0.18 bit/pixel
    Аудио: 48.0 kHz, MPEG Layer 3, 2/0 (L,R) ch, ~128 kbps
    Субтитры: отсутствуют

    MI


    General
    Complete name : D:\incarcare\rip gata\Mortadelo.y.Filemon.contra.Jimmy.el.Cachondo.2014.BDRip.avi
    Format : AVI
    Format/Info : Audio Video Interleave
    File size : 748 MiB
    Duration : 1h 32mn
    Overall bit rate : 1 135 Kbps
    Writing application : VirtualDubMod 1.5.10.2 (build 2540/release)
    Writing library : VirtualDubMod build 2540/release
    Video
    ID : 0
    Format : MPEG-4 Visual
    Format profile : Advanced Simple@L5
    Format settings, BVOP : 1
    Format settings, QPel : No
    Format settings, GMC : No warppoints
    Format settings, Matrix : Custom
    Codec ID : XVID
    Codec ID/Hint : XviD
    Duration : 1h 32mn
    Bit rate : 997 Kbps
    Width : 656 pixels
    Height : 352 pixels
    Display aspect ratio : 1.85:1
    Frame rate : 23.976 fps
    Color space : YUV
    Chroma subsampling : 4:2:0
    Bit depth : 8 bits
    Scan type : Progressive
    Compression mode : Lossy
    Bits/(Pixel*Frame) : 0.180
    Stream size : 658 MiB (88%)
    Writing library : XviD 66
    Audio
    ID : 1
    Format : MPEG Audio
    Format version : Version 1
    Format profile : Layer 3
    Codec ID : 55
    Codec ID/Hint : MP3
    Duration : 1h 32mn
    Bit rate mode : Constant
    Bit rate : 128 Kbps
    Channel(s) : 2 channels
    Sampling rate : 48.0 KHz
    Compression mode : Lossy
    Stream size : 84.4 MiB (11%)
    Alignment : Aligned on interleaves
    Interleave, duration : 42 ms (1.00 video frame)
    Interleave, preload duratio : 504 ms

    Скриншоты


    _________________
    [Профиль] [ЛС]
    Показать сообщения:    
    Ответить на тему

    Текущее время: Сегодня, в 11:48

    Часовой пояс: GMT + 2



    Вы не можете начинать темы
    Вы не можете отвечать на сообщения
    Вы не можете редактировать свои сообщения
    Вы не можете удалять свои сообщения
    Вы не можете голосовать в опросах
    Вы не можете прикреплять файлы к сообщениям
    Вы не можете скачивать файлы