BitTorrentTracker PerecTracker.org
BitTorrentTracker PerecTracker.org
    
Регистрация  ·  Вход
 
 · 
Забыли пароль?

  • Маленькая колдунья / Malá čarodějnice / Die Kleine Hexe (Зденек Сметана / Zdeněk Smetana) [1986, мультфильм, семейный, DVDRip] MVO

    Ответить на тему
     
    Автор Сообщение

    rechyn

    Создавать темы 17-Июн-2015 21:30

           

    [Цитировать]

    Маленькая колдунья / Malá čarodějnice / Die Kleine Hexe
    Страна: Чехословакия,ФРГ
    Жанр: мультфильм, семейный
    Продолжительность: 01:29:00
    Год выпуска: 1986
    Перевод: Профессиональный (многоголосый закадровый)
    Русские субтитры: нет
    Режиссёр: Зденек Сметана / Zdeněk Smetana
    Роли озвучивали: неизвестно
    [img]СПАМ[/img]
    Описание: по сказке Отфрида Пройслера. Маленькая колдунья живёт в лесной избушке с вороном Абрахасом. Ей очень хочется участвовать на балу ведьм на Лысой горе. Но она слишком молода, ей всего 127 лет. Однако ведьмы всё же разрешают ей поучаствовать в шабаше на следующей год при условии, что за год она выучит всю колдовскую книгу и станет хорошей колдуньей...
    Доп. информация: рип взят из этой раздачи:
    http://perectracker.org/viewtopic.php?t=2668266
    мой вариант имеет профессиональный закадровый перевод. звук предоставлен пользователем Манюня0209, за что ей огромная благодарность! звук был записан во время трансляции с канала ТНТ.
    Семпл: http://multi-up.com/1054165
    Качество: DVDRip
    Формат: AVI
    Видео: 432x320 (1.35:1), 25 fps, XviD build 43, 976 kbps avg, 0.28 bit/pixel
    Аудио: 44.1 kHz, MPEG Layer 3 2 channels 192 kbps constant
    Субтитры: отсутствуют

    Подробные технические данные

    GeneralComplete name : malenkaya_koldunia.aviFormat : AVIFormat/Info : Audio Video InterleaveFile size : 754 MiBDuration : 1h 29mnOverall bit rate : 1 179 KbpsWriting application : VirtualDubMod 1.5.4.1 (build 2178/release)Writing library : VirtualDub build 30009/release
    VideoID : 0Format : MPEG-4 VisualFormat profile : Advanced Simple@L5Format settings, BVOP : 1Format settings, QPel : NoFormat settings, GMC : No warppointsFormat settings, Matrix : CustomCodec ID : XVIDCodec ID/Hint : XviDDuration : 1h 29mnBit rate : 977 KbpsWidth : 432 pixelsHeight : 320 pixelsDisplay aspect ratio : 4:3Frame rate : 25.000 fpsColor space : YUVChroma subsampling : 4:2:0Bit depth : 8 bitsScan type : ProgressiveCompression mode : LossyBits/(Pixel*Frame) : 0.283Stream size : 625 MiB (83%)Writing library : XviD 1.2.0SMP (UTC 2006-01-08)
    AudioID : 1Format : MPEG AudioFormat version : Version 1Format profile : Layer 3Codec ID : 55Codec ID/Hint : MP3Duration : 1h 29mnBit rate mode : ConstantBit rate : 192 KbpsChannel(s) : 2 channelsSampling rate : 44.1 KHzCompression mode : LossyStream size : 123 MiB (16%)Alignment : Split accross interleavesInterleave, duration : 40 ms (1.00 video frame)Interleave, preload duration : 500 ms

    Скриншоты


    _________________
    [Профиль] [ЛС]
    Показать сообщения:    
    Ответить на тему

    Текущее время: Сегодня, в 20:35

    Часовой пояс: GMT + 2



    Вы не можете начинать темы
    Вы не можете отвечать на сообщения
    Вы не можете редактировать свои сообщения
    Вы не можете удалять свои сообщения
    Вы не можете голосовать в опросах
    Вы не можете прикреплять файлы к сообщениям
    Вы не можете скачивать файлы