BitTorrentTracker PerecTracker.org
BitTorrentTracker PerecTracker.org
    
Регистрация  ·  Вход
 
 · 
Забыли пароль?

  • Оливер и компания / Oliver & Company (Джордж Скрибнер / George Scribner) [1988, приключения, семейный, DVDRip] Dub (Пифагор)+ AVO (Живов) + AVO (Ошурков) + AVO (Санаев) + Rus, Eng Sub + Original Eng

    Ответить на тему
     
    Автор Сообщение

    rechyn

    Создавать темы 17-Июн-2015 21:30

           

    [Цитировать]

    Оливер и компания / Oliver & Company
    Страна: США
    Жанр: приключения, семейный
    Продолжительность: 01:10:32
    Год выпуска: 1988
    Перевод 1: Профессиональный (дублированный) Пифагор
    Перевод 2: Авторский (одноголосый закадровый) Юрий Живов отдельным файлом
    Перевод 3: Авторский (одноголосый закадровый) Максим Ошурков отдельным файлом
    Перевод 4: Авторский (одноголосый закадровый) Павел Санаев отдельным файлом
    Русские субтитры: есть
    Режиссёр: Джордж Скрибнер / George Scribner
    Описание: Рисованный, цветной, полнометражный мультфильм про котенка Оливера, которого никто не купил. Он остался один на страшных улицах Нью-Йорка и выжил, только благодаря друзьям. Героями этой почти детективной истории будут кошки, собаки и люди, ибо бомж Фэйгон, в «дыре» которого нашли приют котенок и несколько бездомных собак, задолжал деньги крупному мафиози.
    Лучшим другом и защитником малыша стал фокстерьер Доджер, большой специалист по краже сосисок. Вместе они должны помочь своему хозяину, иначе им грозит стать «закуской для подлых доберманов» у которых еcть ошейники, но нет совести.
    Доп. информация:
    За перевод Ошуркова спасибо Aflame 300, в дорожке устранен рассинхрон.
    За оцифровку VHS с переводом Санаева спасибо RockNIK, синхронизация перевода Dreven.
    Семпл: http://multi-up.com/1054133
    Качество: DVDRip Исходник
    Формат: AVI
    Видео: 672x400 (1.68:1), 25 fps, XviD build 73 ~2400 kbps avg, 0.36 bit/pixel
    Аудио 1: 48 kHz, AC3 Dolby Digital, 3/2 (L,C,R,l,r) + LFE ch, ~384 kbps Пифагор
    Аудио 2: 48 kHz, AC3 Dolby Digital, 3/2 (L,C,R,l,r) + LFE ch, ~384 kbps Юрий Живов отдельным файлом
    Аудио 3: 48 kHz, AC3 Dolby Digital, 2/0 (L,R) ch, ~192 kbps Максим Ошурков отдельным файлом
    Аудио 4: 48 kHz, AC3 Dolby Digital, 2/0 (L,R) ch, ~192 kbps Павел Санаев отдельным файлом
    Аудио 5: 48 kHz, AC3 Dolby Digital, 3/2 (L,C,R,l,r) + LFE ch, ~384 kbps Eng отдельным файлом
    Субтитры: русские, английские

    Сравнение

    http://perectracker.org/viewtopic.php?t=3675139
    http://perectracker.org/viewtopic.php?t=3675784 видео одно и тоже
    http://screenshotcomparison.com/comparison/129962
    Апскейл, лишние кадры вначале, из-за неправильно разобранного DVD.-http://perectracker.org/viewtopic.php?t=4494548
    http://screenshotcomparison.com/comparison/129963/picture:0

    Подробные технические данные

    GeneralComplete name : C:\Users\Vladimir\Desktop\trecker\готовые\Oliver & Company\Oliver & Company.aviFormat : AVIFormat/Info : Audio Video InterleaveFile size : 1.38 GiBDuration : 1h 10mnOverall bit rate : 2 794 KbpsWriting application : VirtualDubMod 1.5.10.3 | www.virtualdub-fr.org || (build 2550/release)Writing library : VirtualDubMod build 2550/release
    VideoID : 0Format : MPEG-4 VisualFormat profile : Advanced Simple@L5Format settings, BVOP : 1Format settings, QPel : NoFormat settings, GMC : No warppointsFormat settings, Matrix : CustomCodec ID : XVIDCodec ID/Hint : XviDDuration : 1h 10mnBit rate : 2 400 KbpsWidth : 672 pixelsHeight : 400 pixelsDisplay aspect ratio : 1.680Frame rate : 25.000 fpsColor space : YUVChroma subsampling : 4:2:0Bit depth : 8 bitsScan type : ProgressiveCompression mode : LossyBits/(Pixel*Frame) : 0.357Stream size : 1.18 GiB (86%)Writing library : XviD 73
    AudioID : 1Format : AC-3Format/Info : Audio Coding 3Mode extension : CM (complete main)Format settings, Endianness : BigCodec ID : 2000Duration : 1h 10mnBit rate mode : ConstantBit rate : 384 KbpsChannel(s) : 6 channelsChannel positions : Front: L C R, Side: L R, LFESampling rate : 48.0 KHzBit depth : 16 bitsCompression mode : LossyStream size : 194 MiB (14%)Alignment : Split accross interleavesInterleave, duration : 40 ms (1.00 video frame)Interleave, preload duratio : 500 ms

    Скриншоты

    Скачать .torrent

    Скачать торрент-файл бесплатно и на максимальной скорости!

    Как скачивать? · Что такое торрент? · Рейтинг и ограничения

    !ВНИМАНИЕ!
    Сайт не распространяет и не хранит электронные версии произведений, а занимается лишь лишь предоставлением доступа к создаваемому пользователями каталогу ссылок на торрент-файлы, которые содержат только списки хеш-сумм, убедительная просьба с жалобами обращаться напрямую к пользователю. Файлы для обмена на трекере предоставлены пользователями сайта, и администрация не несёт ответственности за их содержание. Просьба не заливать файлы, защищенные авторскими правами, а также файлы нелегального содержания!


    _________________
    [Профиль] [ЛС]
    Показать сообщения:    
    Ответить на тему

    Текущее время: Сегодня, в 05:59

    Часовой пояс: GMT + 2



    Вы не можете начинать темы
    Вы не можете отвечать на сообщения
    Вы не можете редактировать свои сообщения
    Вы не можете удалять свои сообщения
    Вы не можете голосовать в опросах
    Вы не можете прикреплять файлы к сообщениям
    Вы не можете скачивать файлы