BitTorrentTracker PerecTracker.org
BitTorrentTracker PerecTracker.org
    
Регистрация  ·  Вход
 
 · 
Забыли пароль?

  • Факап, или Хуже не бывает (Не мой день) / Nicht mein Tag (Петер Торварт/ Peter Thorwarth) [2014, боевик, комедия, криминал, приключения, HDRip-AVC] Dub (iTunes) + Original Ger + Sub Rus, Eng, Ger

    Ответить на тему
     
    Автор Сообщение

    Light

    Создавать темы 17-Июн-2015 04:42

           

    [Цитировать]

    Факап, или Хуже не бывает (Не мой день) / Nicht mein Tag
    Страна: Германия
    Жанр: боевик, комедия, криминал, приключения
    Год выпуска: 2014
    Продолжительность: 01:50:17
    Перевод: Профессиональный (дублированный) iTunes
    Cубтитры: Русский, Английский, Немецкий
    Режиссер: Петер Торварт/ Peter Thorwarth
    В ролях: Мориц Бляйбтрой, Аксель Штайн, Жасмин Герат, Анна Мария Мюэ, Неля Кипер, Бен Рюдингер, Касэм Ходжа, Беким Гури, Тобиас Нид, Максвелл Рихтер
    Описание: Тиль Райнер — банковский клерк 30-ти лет. Каждый новый день его жизни похож на предыдущий. Отношения с супругой больше напоминают привычку. Но неожиданно происходит то, что позволяет выбраться ему из повседневной рутины. Тиля захватывает в заложники грабитель банка, в котором наш герой узнает заявителя по кредиту — Наппо. Полиция разрабатывает план перехват, устанавливает блокпосты, поэтому Наппо решает спрятать заложника в багажник и исчезнуть с награбленным! Но все идет не по плану и Наппо скрывается вместе с Тиллем! После того как шок от случившегося немного проходит, Тиль забывает про какое-либо благоразумие и погружается с головой в приключения вместе со своим похитителем.

    Качество видео: HDRip-AVC
    Формат видео: MKV
    Видео: AVC, 1024x432, 2.40:1, 25.000 fps, 2 055 kbps
    Аудио 1: AC3, 48.0 KHz, 6 ch, 384 kbps, CBR
    Аудио 2: AC3, 48.0 KHz, 6 ch, 384 kbps, CBR
    Формат субтитров: softsub (SRT)

    MediaInfo

    D:\Скаченное\Nicht.mein Tag.2014.D.BDRip. СПАМ
    General
    Unique ID : 179340136355338522799793579336548067225 (0x86EBA764EC786D688A91D8816565A799)
    Complete name : D:\Скаченное\Nicht.mein Tag.2014.D.BDRip. СПАМ
    Format : Matroska
    Format version : Version 4 / Version 2
    File size : 2.18 GiB
    Duration : 1h 50mn
    Overall bit rate : 2 826 Kbps
    Movie name : Факап, или Хуже не бывает / Nicht mein Tag (2014) for NNM-CLUB
    Encoded date : UTC 2015-06-12 06:07:49
    Writing application : mkvmerge v7.9.0 ('Birds') 64bit
    Writing library : libebml v1.3.1 libmatroska v1.4.2
    Attachements : cover.jpg
    DURATION : 01:46:39.819000000
    NUMBER_OF_FRAMES : 1259
    NUMBER_OF_BYTES : 55387
    _STATISTICS_WRITING_APP : mkvmerge v7.9.0 ('Birds') 64bit
    _STATISTICS_WRITING_DATE_UTC : 2015-06-12 06:07:49
    _STATISTICS_TAGS : BPS DURATION NUMBER_OF_FRAMES NUMBER_OF_BYTES
    Video #1
    ID : 1
    Format : AVC
    Format/Info : Advanced Video Codec
    Format profile : High@L4.1
    Format settings, CABAC : Yes
    Format settings, ReFrames : 5 frames
    Codec ID : V_MPEG4/ISO/AVC
    Duration : 1h 50mn
    Bit rate : 2 055 Kbps
    Width : 1 024 pixels
    Height : 432 pixels
    Display aspect ratio : 2.40:1
    Frame rate mode : Constant
    Frame rate : 25.000 fps
    Color space : YUV
    Chroma subsampling : 4:2:0
    Bit depth : 8 bits
    Scan type : Progressive
    Bits/(Pixel*Frame) : 0.186
    Stream size : 1.54 GiB (71%)
    Writing library : x264 core 142 r2431 ac76440
    Encoding settings : cabac=1 / ref=5 / deblock=1:-3:-3 / analyse=0x3:0x133 / me=umh / subme=11 / psy=1 / psy_rd=1.00:0.08 / mixed_ref=1 / me_range=32 / chroma_me=1 / trellis=2 / 8x8dct=1 / cqm=0 / deadzone=21,11 / fast_pskip=0 / chroma_qp_offset=-3 / threads=6 / lookahead_threads=1 / sliced_threads=0 / nr=0 / decimate=0 / interlaced=0 / bluray_compat=0 / constrained_intra=0 / bframes=10 / b_pyramid=2 / b_adapt=2 / b_bias=0 / direct=3 / weightb=1 / open_gop=0 / weightp=2 / keyint=250 / keyint_min=25 / scenecut=40 / intra_refresh=0 / rc_lookahead=60 / rc=2pass / mbtree=1 / bitrate=2055 / ratetol=1.0 / qcomp=0.70 / qpmin=0 / qpmax=69 / qpstep=4 / cplxblur=20.0 / qblur=0.5 / vbv_maxrate=50000 / vbv_bufsize=62500 / nal_hrd=none / filler=0 / ip_ratio=1.40 / aq=1:0.80
    Default : Yes
    Forced : No
    Audio #2
    ID : 2
    Format : AC-3
    Format/Info : Audio Coding 3
    Mode extension : CM (complete main)
    Format settings, Endianness : Big
    Codec ID : A_AC3
    Duration : 1h 50mn
    Bit rate mode : Constant
    Bit rate : 384 Kbps
    Channel(s) : 6 channels
    Channel positions : Front: L C R, Side: L R, LFE
    Sampling rate : 48.0 KHz
    Bit depth : 16 bits
    Compression mode : Lossy
    Delay relative to video : 120ms
    Stream size : 303 MiB (14%)
    Title : Дублированный (iTunes)
    Language : Russian
    Default : Yes
    Forced : No
    Audio #3
    ID : 3
    Format : AC-3
    Format/Info : Audio Coding 3
    Mode extension : CM (complete main)
    Format settings, Endianness : Big
    Codec ID : A_AC3
    Duration : 1h 50mn
    Bit rate mode : Constant
    Bit rate : 384 Kbps
    Channel(s) : 6 channels
    Channel positions : Front: L C R, Side: L R, LFE
    Sampling rate : 48.0 KHz
    Bit depth : 16 bits
    Compression mode : Lossy
    Stream size : 303 MiB (14%)
    Title : German
    Language : German
    Default : No
    Forced : No
    Text #4
    ID : 4
    Format : UTF-8
    Codec ID : S_TEXT/UTF8
    Codec ID/Info : UTF-8 Plain Text
    Language : Russian
    Default : No
    Forced : No
    Text #5
    ID : 5
    Format : UTF-8
    Codec ID : S_TEXT/UTF8
    Codec ID/Info : UTF-8 Plain Text
    Language : English
    Default : No
    Forced : No
    Text #6
    ID : 6
    Format : UTF-8
    Codec ID : S_TEXT/UTF8
    Codec ID/Info : UTF-8 Plain Text
    Language : German
    Default : No
    Forced : No

    Скриншот c названием фильма

    Скриншоты

    Скачать .torrent

    Скачать торрент-файл бесплатно и на максимальной скорости!

    Как скачивать? · Что такое торрент? · Рейтинг и ограничения

    !ВНИМАНИЕ!
    Сайт не распространяет и не хранит электронные версии произведений, а занимается лишь лишь предоставлением доступа к создаваемому пользователями каталогу ссылок на торрент-файлы, которые содержат только списки хеш-сумм, убедительная просьба с жалобами обращаться напрямую к пользователю. Файлы для обмена на трекере предоставлены пользователями сайта, и администрация не несёт ответственности за их содержание. Просьба не заливать файлы, защищенные авторскими правами, а также файлы нелегального содержания!


    _________________
    [Профиль] [ЛС]
    Показать сообщения:    
    Ответить на тему

    Текущее время: Сегодня, в 20:21

    Часовой пояс: GMT + 2



    Вы не можете начинать темы
    Вы не можете отвечать на сообщения
    Вы не можете редактировать свои сообщения
    Вы не можете удалять свои сообщения
    Вы не можете голосовать в опросах
    Вы не можете прикреплять файлы к сообщениям
    Вы не можете скачивать файлы