BitTorrentTracker PerecTracker.org
BitTorrentTracker PerecTracker.org
    
Регистрация  ·  Вход
 
 · 
Забыли пароль?

  • Дивергент / Divergent (Нил Бёргер) [2014, США, фантастика, триллер, HDRip] Dub

    Ответить на тему
     
    Автор Сообщение

    Light

    Создавать темы 17-Июн-2015 04:42

           

    [Цитировать]

    Дивергент / Divergent
    Страна: США
    Жанр: фантастика, триллер
    Год выпуска: 2014
    Продолжительность: 02.19.40
    Перевод: Профессиональный (дублированный)
    Cубтитры: нет
    Оригинальная аудиодорожка: нет
    Режиссер: Нил Бёргер / Heil Burger
    В ролях: Шейлин Вудли, Кейт Уинслет, Тео Джеймс, Эшли Джадд, Джай Кортни, Рэй Стивенсон, Зои Кравиц, Майлз Теллер, Тони Голдуин, Мэгги Кью
    Описание: Действие развивается на Земле в будущем, в деспотичном Чикаго. Все подростки, достигшие 16 лет, обязаны выбрать одну из пяти фракций и присоединиться к ней на всю оставшуюся жизнь. Каждая фракция представляет определенное качество: Искренность, Отречение, Бесстрашие, Дружелюбие и Эрудиция.
    Доп. информация:
    Сэмпл: https://www.sendspace.com/file/yh91ja
    Качество видео: HDRip
    Формат видео: AVI
    Видео: 720x304 (2.37:1), 23.976 fps, XviD 73 ~1285 kbps, 0.245 bit/pixel
    Аудио: 48 kHz, AC3 2.0,~192 kbps

    MediaInfo

    Формат : AVI
    Формат/Информация : Audio Video Interleave
    Размер файла : 1,45 Гбайт
    Продолжительность : 2 ч. 19 м.
    Общий поток : 1486 Кбит/сек
    Программа кодирования : VirtualDubMod 1.5.10.3 | www.virtualdub-fr.org || (build 2550/release)
    Библиотека кодирования : VirtualDubMod build 2550/release
    Видео
    Идентификатор : 0
    Формат : MPEG-4 Visual
    Профиль формата : Advanced Simple@L5
    Параметр BVOP формата : 1
    Параметр QPel формата : Нет
    Параметр GMC формата : Без точки перехода
    Параметр матрицы формата : Выборочная
    Идентификатор кодека : XVID
    Идентификатор кодека/Подсказка : XviD
    Продолжительность : 2 ч. 19 м.
    Битрейт : 1285 Кбит/сек
    Ширина : 720 пикселей
    Высота : 304 пикселя
    Соотношение сторон : 2,35:1
    Частота кадров : 23,976 кадра/сек
    Цветовое пространство : YUV
    Субдискретизация насыщенности : 4:2:0
    Битовая глубина : 8 бит
    Тип развёртки : Прогрессивная
    Метод сжатия : С потерями
    Бит/(Пиксели*Кадры) : 0.245
    Размер потока : 1,25 Гбайт (86%)
    Библиотека кодирования : XviD 73
    Аудио
    Идентификатор : 1
    Формат : AC-3
    Формат/Информация : Audio Coding 3
    Расширение режима : CM (complete main)
    Параметр Endianness формата : Big
    Идентификатор кодека : 2000
    Продолжительность : 2 ч. 19 м.
    Вид битрейта : Постоянный
    Битрейт : 192 Кбит/сек
    Каналы : 2 канала
    Расположение каналов : Front: L R
    Частота : 48,0 КГц
    Битовая глубина : 16 бит
    Метод сжатия : С потерями
    Размер потока : 192 Мбайт (13%)
    Выравнивание : Разделение по промежуткам
    Продолжительность промежутка : 42 мс. (1,00 видеокадр)
    Время предзагрузки промежутка : 500 мс.

    Скриншот c названием фильма

    Скриншоты

    Скачать .torrent

    Скачать торрент-файл бесплатно и на максимальной скорости!

    Как скачивать? · Что такое торрент? · Рейтинг и ограничения

    !ВНИМАНИЕ!
    Сайт не распространяет и не хранит электронные версии произведений, а занимается лишь лишь предоставлением доступа к создаваемому пользователями каталогу ссылок на торрент-файлы, которые содержат только списки хеш-сумм, убедительная просьба с жалобами обращаться напрямую к пользователю. Файлы для обмена на трекере предоставлены пользователями сайта, и администрация не несёт ответственности за их содержание. Просьба не заливать файлы, защищенные авторскими правами, а также файлы нелегального содержания!


    _________________
    [Профиль] [ЛС]
    Показать сообщения:    
    Ответить на тему

    Текущее время: Сегодня, в 12:33

    Часовой пояс: GMT + 2



    Вы не можете начинать темы
    Вы не можете отвечать на сообщения
    Вы не можете редактировать свои сообщения
    Вы не можете удалять свои сообщения
    Вы не можете голосовать в опросах
    Вы не можете прикреплять файлы к сообщениям
    Вы не можете скачивать файлы