BitTorrentTracker PerecTracker.org
BitTorrentTracker PerecTracker.org
    
Регистрация  ·  Вход
 
 · 
Забыли пароль?

  • Тренер / McFarland, USA (Ники Каро / Niki Caro ) [2015, США, Драма, спорт, BDRip, HD (720p)] MVO + Original + sub (rus, eng)

    Ответить на тему
     
    Автор Сообщение

    rechyn

    Создавать темы 16-Июн-2015 20:18

           

    [Цитировать]

    Тренер / McFarland, USA
    «Champions can come from anywhere»
    7.717 / 10 7.50 / 10
    -Год выпуска: 2015
    Страна: США
    Жанр: Драма, спорт
    Продолжительность: 02:08:55
    Перевод: Многоголосый закадровый (Лицензия)
    Оригинальная аудиодорожка: Есть
    Cубтитры: Русские, Английские
    Режиссёр: Ники Каро
    Сценарий: Крис Кливлэнд, Беттина Гилуа, Грант Томпсон
    Продюсер: Марк Кьярди, Гордон Грэй, Марио Искович
    Оператор: Адам Аркпоу, Терри Стэйси
    Композитор: Антонио Пинто
    Художник: Ричард Хувер, Карен Стюарт, Софи Де Ракофф
    Монтаж: Дэвид Колсон
    В ролях: Кевин Костнер, Рамиро Родригес, Карлос Праттс, Джонни Ортиз, Рафаэль Мартинез, Гектор Дюран, Серджо Авелар, Майкл Агеро, Диана-Мария Рива, Омар Лейва
    Сборы в США: $44 407 545
    Мировая премьера: 15 февраля 2015
    Премьера (РФ):
    Релиз на DVD: 16 июня 2015, «Уолт Дисней Компани СНГ»
    Релиз на Blu-Ray: 16 июня 2015, «Уолт Дисней Компани СНГ»
    Описание: История, основанная на реальных событиях. В начале девяностых, в маленьком городке МакФарланд, профессиональный тренер создает команду по легкой атлетике из обычных сорванцов и мелких «хулиганов», и приводит эту команду до вершины спортивного Олимпа. Население МакФарланда — это 90 процентов латиноамериканцы, которые приехали в США под видом переселенцев и беженцев…-Качество исходника: BDRemux (HDClub)
    Качество: BDRip
    Тип: HD (720p)
    Контейнер: M4V
    Видео: H.264, 1280x544, 2.35:1, 3 500 Kbps, 23.976 fps
    Аудио 1: Русский/Многоголосый закадровый (Лицензия), AAC / 2.0 / 157 Kbps / 48.0 KHz
    Аудио 2: Английский/Оригинальная дорожка , AAC / 2.0 / 156 Kbps / 48.0 KHz
    Аудио 3: Русский/Многоголосый закадровый (Лицензия), AC-3 / 5.1 / 640 Kbps / 48.0 KHz
    Аудио 4: Английский/Оригинальная дорожка , AC-3 / 5.1 / 640 Kbps / 48.0 KHz
    Субтитры 1: Русские полные
    Субтитры 2: Английские полные
    -

    iTunes Meta Tags

    Sort Name: McFarland, USA
    XID: Apple:vendor_id:2015-645261
    contentID: 965531794
    Copyright: © 2014 Disney Enterprises, Inc. All Rights Reserved
    Screenwriters: Крис Кливлэнд, Беттина Гилуа, Грант Томпсон
    Producers: Марк Кьярди, Гордон Грэй, Марио Искович
    Director: Ники Каро
    Cast: Кевин Костнер, Рамиро Родригес, Карлос Праттс, Джонни Ортиз, Рафаэль Мартинез, Гектор Дюран, Серджо Авелар, Майкл Агеро, Диана-Мария Рива, Омар Лейва
    Studio: Walt Disney Pictures
    Rating: 9
    Long Description: История, основана на реальных событиях. В начале девяностых, в маленьком городке МакФарланд, профессиональный тренер создает команду по легкой атлетике из обычных сорванцов и мелких "хулиганов", и приводит эту команду до вершины спортивного Олимпа. Население МакФарланда - это 90 процентов латиноамериканцы, которые приехали в США под видом переселенцев и беженцев...
    Description: История, основана на реальных событиях. В начале девяностых, в маленьком городке МакФарланд, профессиональный тренер создает команду по легкой атлетике из обычных сорванцов и мелких "хулиганов", и приводит эту команду до вершины спортивного Олимпа. Население МакФарланда - это 90 процентов латиноамериканцы, которые приехали в США под видом переселенцев и беженцев...
    Release Date: 2015-02-15T08:00:00Z
    Genre: Drama
    Artist: Niki Caro
    Name: McFarland, USA

    MediaInfo

    General
    Complete name                            : /Users/imac/HandBrake/McFarland (720p HD).m4v
    Format                                   : MPEG-4
    Codec ID                                 : M4V
    File size                                : 4.58 GiB
    Duration                                 : 2h 9mn
    Overall bit rate mode                    : Variable
    Overall bit rate                         : 5 083 Kbps
    Movie name                               : McFarland, USA
    Performer                                : Niki Caro
    Genre                                    : Drama
    Recorded date                            : UTC 2015-02-15 08:00:00
    Encoded date                             : UTC 2015-06-16 11:19:25
    Tagged date                              : UTC 2015-06-16 11:22:02
    Copyright                                : © 2014 Disney Enterprises, Inc. All Rights Reserved
    Cover                                    : Yes
    sonm                                     : McFarland, USA
    desc                                     : История, основана на реальных событиях. В начале девяностых, в маленьком городке МакФарланд, профессиональный тренер создает команду по легкой атлетике из обычных сорванцов и мелких "хулиганов", и приводит эту команду до вершины спортивного Олимпа. Население МакФарланда - это 90 процентов латиноамериканцы, которые приехали в США под видом переселенцев и беженцев...
    ldes                                     : История, основана на реальных событиях. В начале девяностых, в маленьком городке МакФарланд, профессиональный тренер создает команду по легкой атлетике из обычных сорванцов и мелких "хулиганов", и приводит эту команду до вершины спортивного Олимпа. Население МакФарланда - это 90 процентов латиноамериканцы, которые приехали в США под видом переселенцев и беженцев...
    hdvd                                     : 1
    stik                                     : 9
    rtng                                     : 0
    cnID                                     : 965531794
    xid                                      : Apple:vendor_id:2015-645261
    iTunEXTC                                 : mpaa|PG|200|
    iTunMOVI                                 : <?xml version=\"1.0\" encoding=\"UTF-8\"?> / <!DOCTYPE plist PUBLIC \"-//Apple//DTD PLIST 1.0//EN\" \"http://anonym.to/?http://www.apple.com/DTDs/PropertyList-1.0.dtd\"> / <plist version=\"1.0\"> / <dict> /  <key>cast</key> /  <array> /   <dict> /    <key>name</key> /    <string>Кевин Костнер</string> /   </dict> /   <dict> /    <key>name</key> /    <string>Рамиро Родригес</string> /   </dict> /   <dict> /    <key>name</key> /    <string>Карлос Праттс</string> /   </dict> /   <dict> /    <key>name</key> /    <string>Джонни Ортиз</string> /   </dict> /   <dict> /    <key>name</key> /    <string>Рафаэль Мартинез</string> /   </dict> /   <dict> /    <key>name</key> /    <string>Гектор Дюран</string> /   </dict> /   <dict> /    <key>name</key> /    <string>Серджо Авелар</string> /   </dict> /   <dict> /    <key>name</key> /    <string>Майкл Агеро</string> /   </dict> /   <dict> /    <key>name</key> /    <string>Диана-Мария Рива</string> /   </dict> /   <dict> /    <key>name</key> /    <string>Омар Лейва</string> /   </dict> /  </array> /  <key>directors</key> /  <array> /   <dict> /    <key>name</key> /    <string>Ники Каро</string> /   </dict> /  </array> /  <key>producers</key> /  <array> /   <dict> /    <key>name</key> /    <string>Марк Кьярди</string> /   </dict> /   <dict> /    <key>name</key> /    <string>Гордон Грэй</string> /   </dict> /   <dict> /    <key>name</key> /    <string>Марио Искович</string> /   </dict> /  </array> /  <key>screenwriters</key> /  <array> /   <dict> /    <key>name</key> /    <string>Крис Кливлэнд</string> /   </dict> /   <dict> /    <key>name</key> /    <string>Беттина Гилуа</string> /   </dict> /   <dict> /    <key>name</key> /    <string>Грант Томпсон</string> /   </dict> /  </array> /  <key>studio</key> /  <string>Walt Disney Pictures</string> / </dict> / </plist>
    Video #1
    ID                                       : 1
    Format                                   : AVC
    Format/Info                              : Advanced Video Codec
    Format profile                           : High@L3.1
    Format settings, CABAC                   : No
    Format settings, ReFrames                : 3 frames
    Codec ID                                 : avc1
    Codec ID/Info                            : Advanced Video Coding
    Duration                                 : 2h 8mn
    Bit rate mode                            : Variable
    Bit rate                                 : 3 500 Kbps
    Width                                    : 1 280 pixels
    Height                                   : 544 pixels
    Display aspect ratio                     : 2.35:1
    Frame rate mode                          : Variable
    Frame rate                               : 23.976 fps
    Minimum frame rate                       : 11.992 fps
    Maximum frame rate                       : 23.981 fps
    Color space                              : YUV
    Chroma subsampling                       : 4:2:0
    Bit depth                                : 8 bits
    Scan type                                : Progressive
    Bits/(Pixel*Frame)                       : 0.210
    Stream size                              : 3.14 GiB (68%)
    Writing library                          : x264 core 142 r2479 dd79a61
    Encoding settings                        : cabac=0 / ref=3 / deblock=1:-3:-3 / analyse=0x3:0x113 / me=umh / subme=9 / psy=1 / psy_rd=1.00:0.15 / mixed_ref=1 / me_range=32 / chroma_me=1 / trellis=0 / 8x8dct=1 / cqm=0 / deadzone=21,11 / fast_pskip=0 / chroma_qp_offset=-2 / threads=36 / lookahead_threads=3 / sliced_threads=0 / nr=0 / decimate=0 / interlaced=0 / bluray_compat=0 / constrained_intra=0 / bframes=3 / b_pyramid=0 / b_adapt=2 / b_bias=0 / direct=1 / weightb=0 / open_gop=0 / weightp=0 / keyint=240 / keyint_min=24 / scenecut=40 / intra_refresh=0 / rc_lookahead=40 / rc=2pass / mbtree=1 / bitrate=3500 / ratetol=1.0 / qcomp=0.65 / qpmin=0 / qpmax=69 / qpstep=4 / cplxblur=20.0 / qblur=0.5 / vbv_maxrate=9500 / vbv_bufsize=9500 / nal_hrd=none / filler=0 / ip_ratio=1.40 / aq=1:1.10
    Language                                 : English
    Encoded date                             : UTC 2015-06-16 11:19:25
    Tagged date                              : UTC 2015-06-16 11:19:36
    Color primaries                          : BT.709-5, BT.1361, IEC 61966-2-4, SMPTE RP177
    Transfer characteristics                 : BT.709-5, BT.1361
    Matrix coefficients                      : BT.709-5, BT.1361, IEC 61966-2-4 709, SMPTE RP177
    Video #2
    ID                                       : 9
    Format                                   : JPEG
    Codec ID                                 : jpeg
    Duration                                 : 2h 8mn
    Bit rate mode                            : Variable
    Bit rate                                 : 1 022 bps
    Width                                    : 640 pixels
    Height                                   : 272 pixels
    Display aspect ratio                     : 2.35:1
    Frame rate mode                          : Variable
    Frame rate                               : 0.003 fps
    Minimum frame rate                       : 0.002 fps
    Maximum frame rate                       : 0.009 fps
    Color space                              : YUV
    Chroma subsampling                       : 4:2:0
    Bit depth                                : 8 bits
    Compression mode                         : Lossy
    Bits/(Pixel*Frame)                       : 1.957
    Stream size                              : 1.06 MiB (0%)
    Language                                 : English
    Encoded date                             : UTC 2015-06-16 11:19:46
    Tagged date                              : UTC 2015-06-16 11:19:46
    Audio #1
    ID                                       : 2
    Format                                   : AAC
    Format/Info                              : Advanced Audio Codec
    Format profile                           : LC
    Codec ID                                 : 40
    Duration                                 : 2h 9mn
    Bit rate mode                            : Variable
    Bit rate                                 : 157 Kbps
    Maximum bit rate                         : 254 Kbps
    Channel(s)                               : 2 channels
    Channel positions                        : Front: L R
    Sampling rate                            : 48.0 KHz
    Compression mode                         : Lossy
    Stream size                              : 145 MiB (3%)
    Language                                 : Russian
    Encoded date                             : UTC 2015-06-16 11:19:25
    Tagged date                              : UTC 2015-06-16 11:19:40
    Audio #2
    ID                                       : 3
    Format                                   : AAC
    Format/Info                              : Advanced Audio Codec
    Format profile                           : LC
    Codec ID                                 : 40
    Duration                                 : 2h 9mn
    Bit rate mode                            : Variable
    Bit rate                                 : 156 Kbps
    Maximum bit rate                         : 253 Kbps
    Channel(s)                               : 2 channels
    Channel positions                        : Front: L R
    Sampling rate                            : 48.0 KHz
    Compression mode                         : Lossy
    Stream size                              : 144 MiB (3%)
    Language                                 : English
    Encoded date                             : UTC 2015-06-16 11:19:25
    Tagged date                              : UTC 2015-06-16 11:19:40
    Audio #3
    ID                                       : 4
    Format                                   : AC-3
    Format/Info                              : Audio Coding 3
    Mode extension                           : CM (complete main)
    Format settings, Endianness              : Big
    Codec ID                                 : ac-3
    Duration                                 : 2h 9mn
    Bit rate mode                            : Constant
    Bit rate                                 : 640 Kbps
    Channel(s)                               : 6 channels
    Channel positions                        : Front: L C R, Side: L R, LFE
    Sampling rate                            : 48.0 KHz
    Bit depth                                : 16 bits
    Compression mode                         : Lossy
    Stream size                              : 591 MiB (13%)
    Language                                 : Russian
    Encoded date                             : UTC 2015-06-16 11:19:25
    Tagged date                              : UTC 2015-06-16 11:19:32
    Audio #4
    ID                                       : 5
    Format                                   : AC-3
    Format/Info                              : Audio Coding 3
    Mode extension                           : CM (complete main)
    Format settings, Endianness              : Big
    Codec ID                                 : ac-3
    Duration                                 : 2h 9mn
    Bit rate mode                            : Constant
    Bit rate                                 : 640 Kbps
    Channel(s)                               : 6 channels
    Channel positions                        : Front: L C R, Side: L R, LFE
    Sampling rate                            : 48.0 KHz
    Bit depth                                : 16 bits
    Compression mode                         : Lossy
    Stream size                              : 591 MiB (13%)
    Language                                 : English
    Encoded date                             : UTC 2015-06-16 11:19:25
    Tagged date                              : UTC 2015-06-16 11:19:32
    Text #1
    ID                                       : 6
    Format                                   : Timed text
    Muxing mode                              : sbtl
    Codec ID                                 : tx3g
    Duration                                 : 2h 4mn
    Bit rate mode                            : Variable
    Bit rate                                 : 90 bps
    Stream size                              : 82.1 KiB (0%)
    Language                                 : Russian
    Encoded date                             : UTC 2015-06-16 11:19:25
    Tagged date                              : UTC 2015-06-16 11:19:32
    Text #2
    ID                                       : 7
    Format                                   : Timed text
    Muxing mode                              : sbtl
    Codec ID                                 : tx3g
    Duration                                 : 2h 4mn
    Bit rate mode                            : Variable
    Bit rate                                 : 62 bps
    Stream size                              : 57.0 KiB (0%)
    Language                                 : English
    Encoded date                             : UTC 2015-06-16 11:19:25
    Tagged date                              : UTC 2015-06-16 11:19:32
    Text #3
    ID                                       : 8
    Format                                   : Apple text
    Codec ID                                 : text
    Duration                                 : 2h 8mn
    Bit rate mode                            : Variable
    Bit rate                                 : 1 bps
    Stream size                              : 615 Bytes (0%)
    Language                                 : English
    Encoded date                             : UTC 2015-06-16 11:19:40
    Tagged date                              : UTC 2015-06-16 11:19:40
    Menu
    00:00:00.000                             : Chapter 1
    00:05:48.431                             : Chapter 2
    00:08:58.621                             : Chapter 3
    00:13:24.929                             : Chapter 4
    00:15:26.759                             : Chapter 5
    00:19:21.452                             : Chapter 6
    00:22:19.380                             : Chapter 7
    00:25:50.841                             : Chapter 8
    00:34:41.538                             : Chapter 9
    00:41:11.260                             : Chapter 10
    00:43:13.925                             : Chapter 11
    00:48:05.007                             : Chapter 12
    00:55:30.035                             : Chapter 13
    00:57:24.399                             : Chapter 14
    01:01:23.179                             : Chapter 15
    01:06:03.543                             : Chapter 16
    01:10:51.080                             : Chapter 17
    01:14:02.938                             : Chapter 18
    01:18:48.641                             : Chapter 19
    01:28:10.619                             : Chapter 20
    01:37:34.932                             : Chapter 21
    01:40:24.727                             : Chapter 22
    01:45:38.165                             : Chapter 23
    01:53:12.828                             : Chapter 24
    02:02:03.858                             : Chapter 25
    02:04:34.592                             : Chapter 26

    x264 лог

    x264 [info]: frame I:2065  Avg QP:16.75  size:103284
    x264 [info]: frame P:68312 Avg QP:19.11  size: 31392
    x264 [info]: frame B:115107 Avg QP:20.91  size:  8794
    x264 [info]: consecutive B-frames:  4.9% 25.7% 34.2% 35.2%
    x264 [info]: mb I  I16..4:  6.4% 57.9% 35.8%
    x264 [info]: mb P  I16..4:  1.4%  5.3%  2.8%  P16..4: 48.3% 25.9% 11.2%  0.0%  0.0%    skip: 5.2%
    x264 [info]: mb B  I16..4:  0.1%  0.7%  0.4%  B16..8: 47.0% 10.0%  1.8%  direct: 3.6%  skip:36.5%  L0:40.8% L1:51.6% BI: 7.6%
    x264 [info]: 8x8 transform intra:56.1% inter:45.7%
    x264 [info]: coded y,uvDC,uvAC intra: 82.9% 80.0% 55.4% inter: 25.9% 21.5% 9.7%
    x264 [info]: i16 v,h,dc,p: 41% 17%  9% 33%
    x264 [info]: i8 v,h,dc,ddl,ddr,vr,hd,vl,hu:  8%  8%  5% 11% 15% 15% 14% 11% 11%
    x264 [info]: i4 v,h,dc,ddl,ddr,vr,hd,vl,hu:  9%  9%  3% 11% 17% 16% 14% 11%  9%
    x264 [info]: i8c dc,h,v,p: 49% 18% 21% 13%
    x264 [info]: ref P L0: 72.6% 15.9% 11.5%
    x264 [info]: ref B L0: 78.6% 21.4%
    x264 [info]: kb/s:3484.79

    Скриншоты

    -

    Релиз подготовлен для просмотра на Apple TV, iPad, iPhone, iPod Touch.
    Для просмотра данного релиза на компьютере с ОС Windows рекомендуется использовать VLC media player
    Скачать .torrent

    Скачать торрент-файл бесплатно и на максимальной скорости!

    Как скачивать? · Что такое торрент? · Рейтинг и ограничения

    !ВНИМАНИЕ!
    Сайт не распространяет и не хранит электронные версии произведений, а занимается лишь лишь предоставлением доступа к создаваемому пользователями каталогу ссылок на торрент-файлы, которые содержат только списки хеш-сумм, убедительная просьба с жалобами обращаться напрямую к пользователю. Файлы для обмена на трекере предоставлены пользователями сайта, и администрация не несёт ответственности за их содержание. Просьба не заливать файлы, защищенные авторскими правами, а также файлы нелегального содержания!


    _________________
    [Профиль] [ЛС]
    Показать сообщения:    
    Ответить на тему

    Текущее время: Сегодня, в 17:41

    Часовой пояс: GMT + 2



    Вы не можете начинать темы
    Вы не можете отвечать на сообщения
    Вы не можете редактировать свои сообщения
    Вы не можете удалять свои сообщения
    Вы не можете голосовать в опросах
    Вы не можете прикреплять файлы к сообщениям
    Вы не можете скачивать файлы